+4

Незаконное вторжение / Unlawful Entry (1992) BDRip-AVC от DoMiNo & селезень | P, P2, A

Информация о фильме
Название: Незаконное вторжение
Оригинальное название: Unlawful Entry
Год выхода: 1992
Жанр: триллер, драма, криминал
Режиссер: Джонатан Каплан
В ролях: Курт Рассел, Рэй Лиотта, Мэделин Стоу, Роджер Э. Мосли, Кен Лернер, Дебора Оффнер, Кармен Ардженциано, Энди Романо, Джонни Рэй МакГи, Дино Анелло, ...

О фильме:
Супруги Карен и Майкл Карр живут себе тихо-мирно вместе с любимым пушистым котом и никого не трогают. Дом - фешенебельный, район - спокойный. По крайней мере, так уверяли Карров, когда они покупали особняк. Однажды ночью в дом вломился громила-грабитель, и Майклу пришлось защищать жену и жилище с помощью клюшки для гольфа. К счастью, преступник убежал, не причинив вреда, Карен и Майклу. Супруги вызвали полицию. Вот так в их доме появился офицер лос-анджелесской полиции Пит Дэвис. В первый, но далеко не в последний раз... Появился для того, чтобы превратить тихую мирную жизнь супругов Карр в бесконечный и абсолютный кошмар. Что может сделать человек, обладающий реальной властью и к тому же олицетворяющий закон, если захочет уничтожить обыкновенного гражданина, не любящего оружие, а иногда даже и не знающего толком своих прав? Да все что угодно! А что может противопоставить обыкновенный гражданин насилию со стороны представителя власти? Ничего, кроме личного сопротивления...

Страна: США
Студия: Largo Entertainment, JVC Entertainment Networks
Продолжительность: 01:51:43
Перевод 1: Профессиональный (многоголосый, закадровый) R5
Перевод 2: Профессиональный (двуголосый, закадровый) Премьер Видео Фильм
Перевод 3: Авторский (одноголосый, закадровый) Гаврилов Андрей Юрьевич
Перевод 4: Авторский (одноголосый, закадровый) Горчаков Василий Овидиевич
Перевод 5: Авторский (одноголосый, закадровый) Дольский Андрей Игоревич
Субтитры: Русские, английские

Файл
Формат: Matroska
Качество: BDRip-AVC
Видео: 1024x576 at 23.976 fps, [email protected], ~2431 kbps
Аудио 1: AC3, 6 ch, ~448 kbps - | Русский | Незаконное вторжение / Unlawful Entry (1992) BDRip-AVC от DoMiNo & селезень | P, P2, A | R5
Аудио 2: AC3, 2 ch, ~192 kbps - | Русский | | Премьер Видео Фильм
Аудио 3: AC3, 2 ch, ~192 kbps - | Русский | | А.Гаврилов
Аудио 4: AC3, 2 ch, ~192 kbps - | Русский | | В.Горчаков
Аудио 5: AC3, 2 ch, ~192 kbps - | Русский | | А.Дольский
Аудио 6: AC3, 6 ch, ~448 kbps - | Английский | | Original
Формат субтитров: softsub (SRT)

Незаконное вторжение / Unlawful Entry (1992) BDRip-AVC от DoMiNo & селезень | P, P2, A

Авторизуйтесь для получения доступа к скачиванию

Нет аккаунта? Регистрация открыта и займёт меньше минуты

Вход Регистрация

x264 [info]: frame I:991 Avg QP:17.00 size: 66781
x264 [info]: frame P:32761 Avg QP:18.41 size: 28067
x264 [info]: frame B:126960 Avg QP:20.62 size: 8283
x264 [info]: consecutive B-frames: 1,1% 1,7% 7,5% 14,9% 12,4% 59,5% 1,9% 0,2% 0,1% 0,1% 0,1% 0,0% 0,0% 0,0% 0,3%

General
Unique ID : 266522305093522103489034500230267395631 (0xC882542DB9008A9EE16F4952F425DE2F)
Complete name : H:Unlawful.entry.1992.BDRip.x264.seleZen.mkv
Format : Matroska
Format version : Version 4
File size : 3.20 GiB
Duration : 1 h 51 min
Overall bit rate : 4 098 kb/s
Movie name : Unlawful.entry.1992.BDRip.x264.seleZen
Encoded date : UTC 25.01.2023 10:47:58
Writing application : mkvmerge v73.0.0 ('25 or 6 to 4') 64-bit
Writing library : libebml v1.4.4 + libmatroska v1.7.1
Cover : Yes
Attachments : cover.jpg / small_cover.jpg

Video
ID : 1
Format : AVC
Format/Info : Advanced Video Codec
Format profile : [email protected]
Format settings : CABAC / 11 Ref Frames
Format settings, CABAC : Yes
Format settings, Reference : 11 frames
Codec ID : V_MPEG4/ISO/AVC
Duration : 1 h 51 min
Bit rate : 2 431 kb/s
Width : 1 024 pixels
Height : 576 pixels
Display aspect ratio : 16:9
Frame rate mode : Constant
Frame rate : 23.976 (24000/1001) FPS
Color space : YUV
Chroma subsampling : 4:2:0
Bit depth : 8 bits
Scan type : Progressive
Bits/(Pixel*Frame) : 0.172
Stream size : 1.90 GiB (59%)
Title : -=DoMiNo=-
Writing library : x264 core 164 by -=DoMiNo=-
Encoding settings : cabac=1 / ref=11 / deblock=1:-3:-3 / analyse=0×3:0×133 / me=umh / subme=11 / psy=1 / psy_rd=1.05:0.15 / mixed_ref=1 / me_range=48 / chroma_me=1 / trellis=2 / 8×8dct=1 / cqm=0 / deadzone=21,11 / fast_pskip=0 / chroma_qp_offset=-3 / threads=18 / lookahead_threads=4 / sliced_threads=0 / nr=0 / decimate=1 / interlaced=0 / bluray_compat=0 / constrained_intra=0 / bframes=14 / b_pyramid=2 / b_adapt=2 / b_bias=0 / direct=1 / weightb=1 / open_gop=0 / weightp=2 / keyint=240 / keyint_min=23 / scenecut=40 / intra_refresh=0 / rc=crf / mbtree=0 / crf=19.5 / qcomp=0.70 / qpmin=0 / qpmax=69 / qpstep=4 / ip_ratio=1.35 / pb_ratio=1.25 / aq=1:0.90
Language : English
Default : Yes
Forced : No
Color range : Limited
Matrix coefficients : BT.709

Audio #1
ID : 2
Format : AC-3
Format/Info : Audio Coding 3
Commercial name : Dolby Digital
Codec ID : A_AC3
Duration : 1 h 51 min
Bit rate mode : Constant
Bit rate : 448 kb/s
Channel (s) : 6 channels
Channel layout : L R C LFE Ls Rs
Sampling rate : 48.0 kHz
Frame rate : 31.250 FPS (1536 SPF)
Compression mode : Lossy
Stream size : 358 MiB (11%)
Title : MVO-R5
Language : Russian
Service kind : Complete Main
Default : Yes
Forced : Yes

Audio #2
ID : 3
Format : AC-3
Format/Info : Audio Coding 3
Commercial name : Dolby Digital
Codec ID : A_AC3
Duration : 1 h 51 min
Bit rate mode : Constant
Bit rate : 192 kb/s
Channel (s) : 2 channels
Channel layout : L R
Sampling rate : 48.0 kHz
Frame rate : 31.250 FPS (1536 SPF)
Compression mode : Lossy
Stream size : 153 MiB (5%)
Title : DVO_[Премьер Видео Фильм]
Language : Russian
Service kind : Complete Main
Default : No
Forced : No

Audio #3
ID : 4
Format : AC-3
Format/Info : Audio Coding 3
Commercial name : Dolby Digital
Codec ID : A_AC3
Duration : 1 h 51 min
Bit rate mode : Constant
Bit rate : 192 kb/s
Channel (s) : 2 channels
Channel layout : L R
Sampling rate : 48.0 kHz
Frame rate : 31.250 FPS (1536 SPF)
Compression mode : Lossy
Stream size : 153 MiB (5%)
Title : AVO_[Гаврилов Андрей Юрьевич]
Language : Russian
Service kind : Complete Main
Default : No
Forced : No

Audio #4
ID : 5
Format : AC-3
Format/Info : Audio Coding 3
Commercial name : Dolby Digital
Codec ID : A_AC3
Duration : 1 h 51 min
Bit rate mode : Constant
Bit rate : 192 kb/s
Channel (s) : 2 channels
Channel layout : L R
Sampling rate : 48.0 kHz
Frame rate : 31.250 FPS (1536 SPF)
Compression mode : Lossy
Stream size : 153 MiB (5%)
Title : AVO_[Горчаков Василий Овидиевич]
Language : Russian
Service kind : Complete Main
Default : No
Forced : No

Audio #5
ID : 6
Format : AC-3
Format/Info : Audio Coding 3
Commercial name : Dolby Digital
Codec ID : A_AC3
Duration : 1 h 51 min
Bit rate mode : Constant
Bit rate : 192 kb/s
Channel (s) : 2 channels
Channel layout : L R
Sampling rate : 48.0 kHz
Frame rate : 31.250 FPS (1536 SPF)
Compression mode : Lossy
Stream size : 153 MiB (5%)
Title : AVO_[Дольский Андрей Игоревич]
Language : Russian
Service kind : Complete Main
Default : No
Forced : No

Audio #6
ID : 7
Format : AC-3
Format/Info : Audio Coding 3
Commercial name : Dolby Digital
Codec ID : A_AC3
Duration : 1 h 51 min
Bit rate mode : Constant
Bit rate : 448 kb/s
Channel (s) : 6 channels
Channel layout : L R C LFE Ls Rs
Sampling rate : 48.0 kHz
Frame rate : 31.250 FPS (1536 SPF)
Compression mode : Lossy
Stream size : 358 MiB (11%)
Title : Original
Language : English
Service kind : Complete Main
Default : No
Forced : No

Text #1
ID : 8
Format : UTF-8
Codec ID : S_TEXT/UTF8
Codec ID/Info : UTF-8 Plain Text
Duration : 1 h 46 min
Bit rate : 83 b/s
Frame rate : 0.190 FPS
Count of elements : 1212
Stream size : 65.4 KiB (0%)
Title : Full
Language : Russian
Default : No
Forced : No

Text #2
ID : 9
Format : UTF-8
Codec ID : S_TEXT/UTF8
Codec ID/Info : UTF-8 Plain Text
Duration : 1 h 45 min
Bit rate : 55 b/s
Frame rate : 0.258 FPS
Count of elements : 1634
Stream size : 43.0 KiB (0%)
Title : Full
Language : English
Default : No
Forced : No

Menu
00:00:00.000 : en:Chapter 01
00:09:30.695 : en:Chapter 02
00:18:20.432 : en:Chapter 03
00:27:43.703 : en:Chapter 04
00:36:17.425 : en:Chapter 05
00:47:14.665 : en:Chapter 06
00:59:12.215 : en:Chapter 07
01:06:25.815 : en:Chapter 08
01:14:36.013 : en:Chapter 09
01:24:33.610 : en:Chapter 10
01:33:34.817 : en:Chapter 11
01:44:11.870 : en:Chapter 12

Другие фильмы
У данной публикации пока нет комментариев.
Будь первым, оставь своё мнение в комментариях!
Информация
Посетители, находящиеся в группе Гости, не могут оставлять комментарии к данной публикации.
Самый популярный релиз недели

Кино копилка
...
Какую тему вы используете?

Реклама
Последние комментарии
...

ivanfan1337

Вчера, 12:49

...

Bhaar

30 января 2023 22:55

...

dembell56

29 января 2023 11:37

...

rmzshka

27 января 2023 14:23

...

Rograr

25 января 2023 21:12

Реклама