+9

Жестокая ночь / Violent Night (2022) BDRip 720p от селезень | P, A

Информация о фильме
Название: Жестокая ночь
Оригинальное название: Violent Night
Жанр: фэнтези, боевик, триллер, комедия, криминал
Год выпуска: 2022
Режиссер: Томми Виркола / Tommy Wirkola
В ролях: Дэвид Харбор, Джон Легуизамо, Беверли Д’Анджело, Алекс Хэсселл, Кэм Жиганде, Алексис Лодер, Эди Паттерсон, Леа Брэйди, Брендан Флетчер, Майк Допуд

Описание:
В канун Рождества преступники берут в заложники состоятельную семью, чтобы получить их деньги. Незадолго до этого захваченные родители подарили дочери рацию, по которой можно связаться с Сантой. Девочка вызывает подкрепление в его лице, чтобы проучить захватчиков.

Страна: США, Канада
Студия: 87North, Québec Production Services Tax Credit
Продолжительность: 01:51:32
Перевод 1: Профессиональный (многоголосый, закадровый) | Jaskier | Ненормативная лексика
Перевод 2: Профессиональный (многоголосый, закадровый) | TVShows |
Перевод 3: Авторский (одноголосый, закадровый) | М. Яроцкий | Ненормативная лексика
Субтитры: Английские (Full, SDH)

Файл
Формат: Matroska
Качество: BDRip 720p
Видео: 1280x536 at 23.976 fps, [email protected], ~4307 kbps
Аудио 1: AC3, 6 ch, ~384 kbps - | Русский | Жестокая ночь / Violent Night (2022) BDRip 720p от селезень | P, A | Jaskier
Аудио 2: AC3, 2 ch, ~192 kbps - | Русский | | TVShows
Аудио 3: AC3, 6 ch, ~384 kbps - | Русский | | М. Яроцкий
Аудио 4: AC3, 6 ch, ~640 kbps - | Английский | | Original
Формат субтитров: softsub (SRT)

Жестокая ночь / Violent Night (2022) BDRip 720p от селезень | P, A

Авторизуйтесь для получения доступа к скачиванию

Нет аккаунта? Регистрация открыта и займёт меньше минуты

Вход Регистрация

General
Unique ID : 334626399229067681861415751048448717894 (0xFBBEB3434E9A315A8A661711D3BC3446)
Complete name : D:VideoDViolent.Night.2022.BDRip.720p.seleZen.mkv
Format : Matroska
Format version : Version 4
File size : 4.60 GiB
Duration : 1 h 51 min
Overall bit rate : 5 905 kb/s
Movie name : Violent Night 2022 from seleZen
Encoded date : UTC 17.01.2023 11:03:56
Writing application : mkvmerge v59.0.0 ('Shining Star') 64-bit
Writing library : libebml v1.4.2 + libmatroska v1.6.4

Video
ID : 1
Format : AVC
Format/Info : Advanced Video Codec
Format profile : [email protected]
Format settings : CABAC / 12 Ref Frames
Format settings, CABAC : Yes
Format settings, Reference : 12 frames
Codec ID : V_MPEG4/ISO/AVC
Duration : 1 h 51 min
Bit rate : 4 307 kb/s
Width : 1 280 pixels
Height : 536 pixels
Display aspect ratio : 2.40:1
Frame rate mode : Constant
Frame rate : 23.976 (24000/1001) FPS
Color space : YUV
Chroma subsampling : 4:2:0
Bit depth : 8 bits
Scan type : Progressive
Bits/(Pixel*Frame) : 0.262
Stream size : 3.36 GiB (73%)
Title : MTeam
Writing library : x264 core 157 r2938 2b00a84 [email protected] Mod
Encoding settings : cabac=1 / ref=12 / deblock=1:-3:-3 / analyse=0×3:0×133 / me=umh / subme=10 / psy=1 / psy_rd=1.05:0.00 / mixed_ref=1 / me_range=32 / chroma_me=1 / trellis=2 / 8×8dct=1 / cqm=0 / deadzone=21,11 / fast_pskip=0 / chroma_qp_offset=-2 / threads=12 / lookahead_threads=2 / sliced_threads=0 / nr=0 / decimate=0 / interlaced=0 / bluray_compat=0 / constrained_intra=0 / bframes=8 / b_pyramid=2 / b_adapt=2 / b_bias=0 / direct=3 / weightb=1 / open_gop=0 / weightp=2 / keyint=250 / keyint_min=24 / scenecut=40 / intra_refresh=0 / rc_lookahead=250 / rc=crf / mbtree=0 / crf=16.8 / qcomp=0.60 / qpmin=0 / qpmax=69 / qpstep=4 / vbv_maxrate=62500 / vbv_bufsize=78125 / crf_max=0.0 / nal_hrd=none / filler=0 / ip_ratio=1.30 / pb_ratio=1.20 / aq=3:0.80
Language : English
Default : Yes
Forced : No
Color range : Limited
Color primaries : BT.709
Matrix coefficients : BT.709

Audio #1
ID : 2
Format : AC-3
Format/Info : Audio Coding 3
Commercial name : Dolby Digital
Codec ID : A_AC3
Duration : 1 h 51 min
Bit rate mode : Constant
Bit rate : 384 kb/s
Channel (s) : 6 channels
Channel layout : L R C LFE Ls Rs
Sampling rate : 48.0 kHz
Frame rate : 31.250 FPS (1536 SPF)
Compression mode : Lossy
Stream size : 307 MiB (7%)
Title : MVO [Jaskier]
Language : Russian
Service kind : Complete Main
Default : Yes
Forced : Yes

Audio #2
ID : 3
Format : AC-3
Format/Info : Audio Coding 3
Commercial name : Dolby Digital
Codec ID : A_AC3
Duration : 1 h 51 min
Bit rate mode : Constant
Bit rate : 192 kb/s
Channel (s) : 2 channels
Channel layout : L R
Sampling rate : 48.0 kHz
Frame rate : 31.250 FPS (1536 SPF)
Compression mode : Lossy
Stream size : 153 MiB (3%)
Title : MVO [TVShows]
Language : Russian
Service kind : Complete Main
Default : No
Forced : No

Audio #3
ID : 4
Format : AC-3
Format/Info : Audio Coding 3
Commercial name : Dolby Digital
Codec ID : A_AC3
Duration : 1 h 51 min
Bit rate mode : Constant
Bit rate : 384 kb/s
Channel (s) : 6 channels
Channel layout : L R C LFE Ls Rs
Sampling rate : 48.0 kHz
Frame rate : 31.250 FPS (1536 SPF)
Compression mode : Lossy
Stream size : 306 MiB (6%)
Title : AVO [Yarotsky]
Language : Russian
Service kind : Complete Main
Default : No
Forced : No

Audio #4
ID : 5
Format : AC-3
Format/Info : Audio Coding 3
Commercial name : Dolby Digital
Codec ID : A_AC3
Duration : 1 h 51 min
Bit rate mode : Constant
Bit rate : 640 kb/s
Channel (s) : 6 channels
Channel layout : L R C LFE Ls Rs
Sampling rate : 48.0 kHz
Frame rate : 31.250 FPS (1536 SPF)
Compression mode : Lossy
Stream size : 511 MiB (11%)
Title : Original
Language : English
Service kind : Complete Main
Default : No
Forced : No

Text #1
ID : 6
Format : UTF-8
Codec ID : S_TEXT/UTF8
Codec ID/Info : UTF-8 Plain Text
Duration : 1 h 46 min
Bit rate : 51 b/s
Frame rate : 0.236 FPS
Count of elements : 1510
Stream size : 40.3 KiB (0%)
Title : Full
Language : English
Default : No
Forced : No

Text #2
ID : 7
Format : UTF-8
Codec ID : S_TEXT/UTF8
Codec ID/Info : UTF-8 Plain Text
Duration : 1 h 51 min
Bit rate : 68 b/s
Frame rate : 0.318 FPS
Count of elements : 2132
Stream size : 56.3 KiB (0%)
Title : SDH
Language : English
Default : No
Forced : No

Menu
00:00:00.000 : Chapter 01
00:04:52.167 : Chapter 02
00:07:55.517 : Chapter 03
00:13:14.377 : Chapter 04
00:17:55.950 : Chapter 05
00:21:23.782 : Chapter 06
00:29:55.961 : Chapter 07
00:33:29.090 : Chapter 08
00:38:41.736 : Chapter 09
00:44:14.068 : Chapter 10
00:52:57.800 : Chapter 11
00:58:51.945 : Chapter 12
01:09:29.165 : Chapter 13
01:15:18.055 : Chapter 14
01:20:00.713 : Chapter 15
01:24:39.449 : Chapter 16
01:28:12.454 : Chapter 17
01:32:51.775 : Chapter 18
01:37:49.405 : Chapter 19
01:45:31.992 : Chapter 20

Другие фильмы
У данной публикации пока нет комментариев.
Будь первым, оставь своё мнение в комментариях!
Информация
Посетители, находящиеся в группе Гости, не могут оставлять комментарии к данной публикации.
Самый популярный релиз недели

Кино копилка
...
Какую тему вы используете?

Реклама
Последние комментарии
...

ivanfan1337

Вчера, 12:49

...

Bhaar

30 января 2023 22:55

...

dembell56

29 января 2023 11:37

...

rmzshka

27 января 2023 14:23

...

Rograr

25 января 2023 21:12

Реклама