+17

Король Талсы / Tulsa King [S01] (2022) WEB-DLRip-AVC от DoMiNo & селезень | P | Jaskier

Информация о фильме
Название: Король Талсы
Оригинальное название: Tulsa King
Год выхода: 2022
Жанр: драма, криминал
Режиссер: Аллен Култер, Бенджамин Семанофф
В ролях: Сильвестр Сталлоне, Андреа Севадж, Мартин Старр, Джей Уилл, Макс Каселла, Доменик Ломбардоцци, Винсент Пьяцца, Алан С. Петерсон, Гаррет Хедлунд, Дэна Дилэйни и другие.

О фильме:
Матёрый гангстер Дуайт «Генерал» Манфреди отбыл 25-летний тюремный срок и вышел на свободу в совсем другом мире. В родном Нью-Йорке Генералу уже не рады и отправляют Манфреди в Талсу, штат Оклахома, но он и тут не пропадёт — главный герой медленно, но верно собирает новую команду, которая поможет ему сколотить свою собственную криминальную империю.

Страна: США
Студия: 101 Studios, Balboa Productions, Bosque Ranch Productions, MTV Entertainment Studios
Продолжительность: ~ 00:40:00
Перевод: Профессиональный (многоголосый, закадровый) | Jaskier (без цензуры)
Субтитры: Английские (Full, SDH)

Файл
Формат: Matroska
Качество: WEB-DLRip-AVC [исх.2160p.AMZN.WEB-DL.DDP5.1.x265-NTb]
Видео: 1024x510 at 23.976 fps, [email protected], ~1623 kbps
Аудио: AC3, 6 ch, ~384 kbps - | Русский | Король Талсы / Tulsa King [S01] (2022) WEB-DLRip-AVC от DoMiNo & селезень | P | Jaskier
Формат субтитров: softsub (SRT)

Король Талсы / Tulsa King [S01] (2022) WEB-DLRip-AVC от DoMiNo & селезень | P | Jaskier

Авторизуйтесь для получения доступа к скачиванию

Нет аккаунта? Регистрация открыта и займёт меньше минуты

Вход Регистрация

x264 [info]: frame I:716 Avg QP:15.17 size: 58925
x264 [info]: frame P:11384 Avg QP:17.02 size: 17609
x264 [info]: frame B:47863 Avg QP:18.77 size: 4536
x264 [info]: consecutive B-frames: 2,0% 1,4% 4,9% 12,7% 23,2% 30,9% 8,0% 2,9% 3,4% 6,3% 1,6% 1,5% 0,5%

General
Unique ID : 118281732052565824322261966878521978269 (0×58FC3BA37D527C69D6A4B25685006D9D)
Complete name : E:Tulsa.King.2022.S01E05.Token.Joe.AMZN.WEB-DLRip.x264.seleZen.mkv
Format : Matroska
Format version : Version 4
File size : 524 MiB
Duration : 36 min 27 s
Overall bit rate : 2 009 kb/s
Movie name : seleZen
Encoded date : UTC 23.12.2022 08:27:12
Writing application : mkvmerge v72.0.0 ('Minuano (Six-eight)') 64-bit
Writing library : libebml v1.4.4 + libmatroska v1.7.1
Cover : Yes
Attachments : cover.jpg / small_cover.jpg

Video
ID : 1
Format : AVC
Format/Info : Advanced Video Codec
Format profile : [email protected]
Format settings : CABAC / 10 Ref Frames
Format settings, CABAC : Yes
Format settings, Reference : 10 frames
Codec ID : V_MPEG4/ISO/AVC
Duration : 36 min 27 s
Bit rate : 1 623 kb/s
Width : 1 024 pixels
Height : 510 pixels
Display aspect ratio : 2.008
Frame rate mode : Constant
Frame rate : 23.976 (24000/1001) FPS
Color space : YUV
Chroma subsampling : 4:2:0
Bit depth : 8 bits
Scan type : Progressive
Bits/(Pixel*Frame) : 0.130
Stream size : 423 MiB (81%)
Title : -=DoMiNo=-
Writing library : x264 core 164 by -=DoMiNo=-
Encoding settings : cabac=1 / ref=10 / deblock=1:-2:-1 / analyse=0×3:0×133 / me=umh / subme=10 / psy=1 / psy_rd=1.00:0.20 / mixed_ref=1 / me_range=32 / chroma_me=1 / trellis=2 / 8×8dct=1 / cqm=0 / deadzone=21,11 / fast_pskip=0 / chroma_qp_offset=-3 / threads=17 / lookahead_threads=3 / sliced_threads=0 / nr=0 / decimate=1 / interlaced=0 / bluray_compat=0 / constrained_intra=0 / bframes=12 / b_pyramid=2 / b_adapt=2 / b_bias=0 / direct=1 / weightb=1 / open_gop=0 / weightp=2 / keyint=250 / keyint_min=23 / scenecut=40 / intra_refresh=0 / rc=crf / mbtree=0 / crf=18.0 / qcomp=0.65 / qpmin=0 / qpmax=69 / qpstep=4 / ip_ratio=1.35 / pb_ratio=1.25 / aq=2:1.20
Language : English
Default : Yes
Forced : No
Color range : Limited
Matrix coefficients : BT.709

Audio
ID : 2
Format : AC-3
Format/Info : Audio Coding 3
Commercial name : Dolby Digital
Codec ID : A_AC3
Duration : 36 min 27 s
Bit rate mode : Constant
Bit rate : 384 kb/s
Channel (s) : 6 channels
Channel layout : L R C LFE Ls Rs
Sampling rate : 48.0 kHz
Frame rate : 31.250 FPS (1536 SPF)
Compression mode : Lossy
Stream size : 100 MiB (19%)
Title : Jaskier
Language : Russian
Service kind : Complete Main
Default : Yes
Forced : Yes

Text #1
ID : 3
Format : UTF-8
Codec ID : S_TEXT/UTF8
Codec ID/Info : UTF-8 Plain Text
Duration : 35 min 40 s
Bit rate : 68 b/s
Count of elements : 587
Stream size : 17.9 KiB (0%)
Title : Full
Language : English
Default : No
Forced : No

Text #2
ID : 4
Format : UTF-8
Codec ID : S_TEXT/UTF8
Codec ID/Info : UTF-8 Plain Text
Duration : 35 min 43 s
Bit rate : 76 b/s
Count of elements : 669
Stream size : 20.1 KiB (0%)
Title : SDH
Language : English
Default : No
Forced : No

Другие фильмы
Комментарии:

...
-=DoMiNo=- 18 января 2023 21:14
0

9 серий это конец сезона.

...
Prixod 11 января 2023 23:03
0

Сколько серий в сезоне?

...
SHABALIN_VLADISLAV 28 декабря 2022 11:22
0

Можно пожалуйста релизик в 1080p !!!!

...
-=DoMiNo=- 24 декабря 2022 16:48
0

Самый лучший перевод - Jaskier) Хдрезка переводит похабно - часть теста без перевода... Лост зацензуренный - на любителя.

...
Prixod 23 декабря 2022 23:09
0

molaholasola,Смотрел честно не в этом переводе в основном от лостов 6 серию от HDrezka и перевод понравился больше

...
molaholasola 23 декабря 2022 20:10
0

Prixod, но не в этом перевроде. С Новиковым и Гланцем у HDrezka Studio гораздо лучше звучит, и так же без цензуры.

...
Prixod 23 декабря 2022 19:15
0

Советую посмотреть!

Информация
Посетители, находящиеся в группе Гости, не могут оставлять комментарии к данной публикации.
Самый популярный релиз недели

Кино копилка
...
Какую тему вы используете?

Реклама
Последние комментарии
...

ivanfan1337

Вчера, 12:49

...

Bhaar

30 января 2023 22:55

...

dembell56

29 января 2023 11:37

...

rmzshka

27 января 2023 14:23

...

Rograr

25 января 2023 21:12

Реклама