+7

Стражи Галактики: Праздничный спецвыпуск / The Guardians of the Galaxy Holiday Special (2022) WEB-DLRip-AVC от DoMiNo & селезень | D, P

Информация о фильме
Название: Стражи Галактики: Праздничный спецвыпуск
Оригинальное название: The Guardians of the Galaxy Holiday Special
Год выхода: 2022
Жанр: Фантастика, фэнтези, боевик, комедия, приключения
Режиссер: Джеймс Ганн
В ролях: Крис Пратт, Пом Клементьефф, Дэйв Батиста, Брэдли Купер, Вин Дизель, Карен Гиллан, Шон Ганн, Кевин Бейкон, Мария Бакалова, Майкл Рукер

Описание:
Стражи Галактики отмечают Рождество и отправляются на Землю, чтобы отыскать идеальный подарок для Питера Квилла.

Страна: США
Студия: Marvel Studios Inc.
Продолжительность: 00:41:56
Перевод 1: Дублированный (любительский) | LE-Production
Перевод 2: Профессиональный (многоголосый, закадровый) | HDRezka Studio
Перевод 3: Профессиональный (многоголосый, закадровый) | TVShows
Субтитры: Русские (Forced, Full), английские (Full, SDH)

Файл
Формат: Matroska
Качество: WEB-DLRip-AVC
Видео: 1024×576 at 23.976 fps, [email protected], ~2535 kbps
Аудио 1: AC3, 6 ch, ~448 kbps — | Русский | Стражи Галактики: Праздничный спецвыпуск / The Guardians of the Galaxy Holiday Special (2022) WEB-DLRip-AVC от DoMiNo & селезень | D, P | LE-Production
Аудио 2: AC3, 6 ch, ~448 kbps — | Русский | | HDRezka Studio
Аудио 3: AC3, 2 ch, ~192 kbps — | Русский | | TVShows
Аудио 4: AC3, 6 ch, ~448 kbps — | Английский | | Original
Формат субтитров: softsub (SRT)

Стражи Галактики: Праздничный спецвыпуск / The Guardians of the Galaxy Holiday Special (2022) WEB-DLRip-AVC от DoMiNo & селезень | D, P

Авторизуйтесь для получения доступа к скачиванию

Нет аккаунта? Регистрация открыта и займёт меньше минуты

Вход Регистрация

x264 [info]: frame I:630 Avg QP:16.23 size: 82418
x264 [info]: frame P:15851 Avg QP:18.52 size: 25860
x264 [info]: frame B:43902 Avg QP:19.75 size: 7643

General
Unique ID : 65378913136571225224320815264522913710 (0×312F854996A82C89F714E287458947AE)
Complete name : D:The.Guardians.of.the.Galaxy.Holiday.Special.2022.WEB-DLRip.x264.seleZen.mkv
Format : Matroska
Format version : Version 4
File size : 1.19 GiB
Duration : 41 min 56 s
Overall bit rate : 4 075 kb/s
Movie name : The.Guardians.of.the.Galaxy.Holiday.Special.2022.WEB-DLRip.x264.seleZen
Encoded date : UTC 03.12.2022 16:03:23
Writing application : mkvmerge v72.0.0 ('Minuano (Six-eight)') 64-bit
Writing library : libebml v1.4.4 + libmatroska v1.7.1
Cover : Yes
Attachments : cover.jpg / small_cover.jpg

Video
ID : 1
Format : AVC
Format/Info : Advanced Video Codec
Format profile : [email protected]
Format settings : CABAC / 14 Ref Frames
Format settings, CABAC : Yes
Format settings, Reference : 14 frames
Codec ID : V_MPEG4/ISO/AVC
Duration : 41 min 55 s
Bit rate : 2 535 kb/s
Width : 1 024 pixels
Height : 576 pixels
Display aspect ratio : 16:9
Frame rate mode : Constant
Frame rate : 24.000 FPS
Color space : YUV
Chroma subsampling : 4:2:0
Bit depth : 8 bits
Scan type : Progressive
Bits/(Pixel*Frame) : 0.179
Stream size : 760 MiB (62%)
Title : -=DoMiNo=-
Writing library : x264 core 164 r3099+55M 141af3f t_mod_New | by -=DoMiNo=- | X86_64
Encoding settings : cabac=1 / ref=14 / deblock=1:-3:-2 / analyse=0×3:0×133 / me=umh / subme=10 / psy=1 / fade_compensate=0.00 / psy_rd=1.10:0.00 / mixed_ref=1 / me_range=32 / chroma_me=1 / trellis=2 / 8×8dct=1 / cqm=0 / deadzone=21,11 / fast_pskip=0 / chroma_qp_offset=-2 / threads=18 / lookahead_threads=4 / sliced_threads=0 / nr=0 / decimate=1 / interlaced=0 / bluray_compat=0 / constrained_intra=0 / fgo=0 / bframes=10 / b_pyramid=2 / b_adapt=2 / b_bias=0 / direct=1 / weightb=1 / open_gop=0 / weightp=2 / keyint=250 / keyint_min=24 / scenecut=40 / intra_refresh=0 / rc_lookahead=60 / rc=crf / mbtree=0 / crf=18.8000 / qcomp=0.65 / qpmin=0:0:0 / qpmax=69:69:69 / qpstep=4 / vbv_maxrate=50000 / vbv_bufsize=62500 / crf_max=0.0 / nal_hrd=none / filler=0 / ip_ratio=1.35 / pb_ratio=1.25 / aq=3:0.90 / aq-sensitivity=10.00 / aq-factor=1.00:1.00:1.00 / aq2=0 / aq3=0
Language : English
Default : Yes
Forced : No
Color range : Limited
Matrix coefficients : BT.709

Audio #1
ID : 2
Format : AC-3
Format/Info : Audio Coding 3
Commercial name : Dolby Digital
Codec ID : A_AC3
Duration : 41 min 56 s
Bit rate mode : Constant
Bit rate : 448 kb/s
Channel (s) : 6 channels
Channel layout : L R C LFE Ls Rs
Sampling rate : 48.0 kHz
Frame rate : 31.250 FPS (1536 SPF)
Compression mode : Lossy
Stream size : 134 MiB (11%)
Title : DUB
Language : Russian
Service kind : Complete Main
Default : Yes
Forced : Yes

Audio #2
ID : 3
Format : AC-3
Format/Info : Audio Coding 3
Commercial name : Dolby Digital
Codec ID : A_AC3
Duration : 41 min 55 s
Bit rate mode : Constant
Bit rate : 448 kb/s
Channel (s) : 6 channels
Channel layout : L R C LFE Ls Rs
Sampling rate : 48.0 kHz
Frame rate : 31.250 FPS (1536 SPF)
Compression mode : Lossy
Stream size : 134 MiB (11%)
Title : MVO_[HDRezka Studio]
Language : Russian
Service kind : Complete Main
Default : No
Forced : No

Audio #3
ID : 4
Format : AC-3
Format/Info : Audio Coding 3
Commercial name : Dolby Digital
Codec ID : A_AC3
Duration : 41 min 55 s
Bit rate mode : Constant
Bit rate : 192 kb/s
Channel (s) : 2 channels
Channel layout : L R
Sampling rate : 48.0 kHz
Frame rate : 31.250 FPS (1536 SPF)
Compression mode : Lossy
Delay relative to video : 28 ms
Stream size : 57.6 MiB (5%)
Title : MVO_[TVShows]
Language : Russian
Service kind : Complete Main
Default : No
Forced : No

Audio #4
ID : 5
Format : AC-3
Format/Info : Audio Coding 3
Commercial name : Dolby Digital
Codec ID : A_AC3
Duration : 41 min 55 s
Bit rate mode : Constant
Bit rate : 448 kb/s
Channel (s) : 6 channels
Channel layout : L R C LFE Ls Rs
Sampling rate : 48.0 kHz
Frame rate : 31.250 FPS (1536 SPF)
Compression mode : Lossy
Stream size : 134 MiB (11%)
Title : Original
Language : English
Service kind : Complete Main
Default : No
Forced : No

Text #1
ID : 6
Format : UTF-8
Codec ID : S_TEXT/UTF8
Codec ID/Info : UTF-8 Plain Text
Duration : 38 min 42 s
Bit rate : 26 b/s
Count of elements : 127
Stream size : 7.58 KiB (0%)
Title : Forced | HDRezka Studio
Language : Russian
Default : No
Forced : No

Text #2
ID : 7
Format : UTF-8
Codec ID : S_TEXT/UTF8
Codec ID/Info : UTF-8 Plain Text
Duration : 41 min 27 s
Bit rate : 103 b/s
Count of elements : 507
Stream size : 31.3 KiB (0%)
Title : Full
Language : Russian
Default : No
Forced : No

Text #3
ID : 8
Format : UTF-8
Codec ID : S_TEXT/UTF8
Codec ID/Info : UTF-8 Plain Text
Duration : 41 min 27 s
Bit rate : 65 b/s
Count of elements : 533
Stream size : 19.9 KiB (0%)
Title : Full
Language : English
Default : No
Forced : No

Text #4
ID : 9
Format : UTF-8
Codec ID : S_TEXT/UTF8
Codec ID/Info : UTF-8 Plain Text
Duration : 41 min 35 s
Bit rate : 71 b/s
Count of elements : 617
Stream size : 21.8 KiB (0%)
Title : SDH
Language : English
Default : No
Forced : No

Menu
00:39:08.708 : en:Credits
00:41:38.667 : en:Post-Credits Scene

Другие фильмы
У данной публикации пока нет комментариев.
Будь первым, оставь своё мнение в комментариях!
Информация
Посетители, находящиеся в группе Гости, не могут оставлять комментарии к данной публикации.
Самый популярный релиз недели

Кино копилка
...
Какую тему вы используете?

Реклама
Последние комментарии
...

ivanfan1337

Вчера, 12:49

...

Bhaar

30 января 2023 22:55

...

dembell56

29 января 2023 11:37

...

rmzshka

27 января 2023 14:23

...

Rograr

25 января 2023 21:12

Реклама