+2

Невероятно, но факт / Incroyable mais vrai / Incredible But True (2022) BDRemux 1080p от селезень | D

Информация о фильме
Название: Невероятно, но факт
Оригинальное название: Incroyable mais vrai
Год выхода: 2022
Жанр: фэнтези, драма, комедия, детектив
Режиссер: Квентин Дюпьё
В ролях: Ален Шаба, Леа Дрюкер, Бенуа Мажимель, Анаис Демустье, Стефан Пезера, Мари-Кристин Орри, Роксана Арналь, Лена Лапре, Грегуар Бонне, Хиро Утияма

О фильме: Алан и Мари - супружеская пара за 40 - переезжают в дом своей мечты в пригороде. Но риэлтор предупреждает их: то, что находится в подвале, может круто изменить их жизнь.

Страна: Франция, Бельгия
Студия: arte France Cinéma, Atelier de Production, Versus Production
Продолжительность: 01:13:15
Перевод: Дублированный | Back Board Cinema

Качество: BDRemux 1080p
Видео: MPEG-4 AVC, 1920x1080, 36.0 Mbit/s, 24.000 fps
Аудио #01: 48 kHz, AC3, 5.1, 384 Kbps | Дублированный | Back Board Cinema | RUS |Невероятно, но факт / Incroyable mais vrai / Incredible But True (2022) BDRemux 1080p от селезень | D
Аудио #02: 48 kHz, DTS-HD MA, 5.1, 3331 Kbps | Оригинал | FRE |
Субтитры: Английские

Невероятно, но факт / Incroyable mais vrai / Incredible But True (2022) BDRemux 1080p от селезень | D

Авторизуйтесь для получения доступа к скачиванию

Нет аккаунта? Регистрация открыта и займёт меньше минуты

Вход Регистрация

General
Unique ID : 252964867641029295328146140036107401958 (0xBE4F42E79F662E6FE963FBF39324FAE6)
Complete name : D:\Incredible.But.True.2022.BDREMUX.1080p.seleZen.mkv
Format : Matroska
Format version : Version 4
File size : 19.8 GiB
Duration : 1 h 13 min
Overall bit rate mode : Variable
Overall bit rate : 38.8 Mb/s
Movie name : Incroyable mais vrai AKA Incredible But True 2022 from seleZen
Encoded date : UTC 2022-11-25 09:31:04
Writing application : mkvmerge v59.0.0 ('Shining Star') 64-bit
Writing library : libebml v1.4.2 + libmatroska v1.6.4

Video
ID : 1
Format : AVC
Format/Info : Advanced Video Codec
Format profile : [email protected]
Format settings : CABAC / 3 Ref Frames
Format settings, CABAC : Yes
Format settings, Reference : 3 frames
Codec ID : V_MPEG4/ISO/AVC
Duration : 1 h 13 min
Bit rate mode : Variable
Bit rate : 36.0 Mb/s
Maximum bit rate : 38.0 Mb/s
Width : 1 920 pixels
Height : 1 080 pixels
Display aspect ratio : 16:9
Frame rate mode : Constant
Frame rate : 24.000 FPS
Color space : YUV
Chroma subsampling : 4:2:0
Bit depth : 8 bits
Scan type : Progressive
Bits/(Pixel*Frame) : 0.723
Stream size : 17.9 GiB (90%)
Writing library : x264 core 146 r2538 121396c
Encoding settings : cabac=1 / ref=4 / deblock=1:-1:-1 / analyse=0x3:0x133 / me=umh / subme=10 / psy=1 / psy_rd=1.00:0.15 / mixed_ref=1 / me_range=24 / chroma_me=1 / trellis=2 / 8x8dct=1 / cqm=0 / deadzone=21,11 / fast_pskip=1 / chroma_qp_offset=-3 / threads=48 / lookahead_threads=4 / sliced_threads=0 / slices=4 / nr=0 / decimate=1 / interlaced=0 / bluray_compat=1 / constrained_intra=0 / bframes=3 / b_pyramid=1 / b_adapt=2 / b_bias=0 / direct=3 / weightb=1 / open_gop=1 / weightp=1 / keyint=24 / keyint_min=1 / scenecut=40 / intra_refresh=0 / rc_lookahead=24 / rc=2pass / mbtree=1 / bitrate=36000 / ratetol=1.0 / qcomp=0.60 / qpmin=0 / qpmax=69 / qpstep=4 / cplxblur=20.0 / qblur=0.5 / vbv_maxrate=38000 / vbv_bufsize=30000 / nal_hrd=vbr / filler=0 / ip_ratio=1.40 / aq=1:1.00
Language : French
Default : Yes
Forced : No
Color range : Limited
Color primaries : BT.709
Transfer characteristics : BT.709
Matrix coefficients : BT.709

Audio #1
ID : 2
Format : AC-3
Format/Info : Audio Coding 3
Commercial name : Dolby Digital
Codec ID : A_AC3
Duration : 1 h 13 min
Bit rate mode : Constant
Bit rate : 384 kb/s
Channel(s) : 6 channels
Channel layout : L R C LFE Ls Rs
Sampling rate : 48.0 kHz
Frame rate : 31.250 FPS (1536 SPF)
Compression mode : Lossy
Stream size : 201 MiB (1%)
Title : Dub
Language : Russian
Service kind : Complete Main
Default : Yes
Forced : Yes

Audio #2
ID : 3
Format : DTS XLL
Format/Info : Digital Theater Systems
Commercial name : DTS-HD Master Audio
Codec ID : A_DTS
Duration : 1 h 13 min
Bit rate mode : Variable
Bit rate : 3 331 kb/s
Channel(s) : 6 channels
Channel layout : C L R Ls Rs LFE
Sampling rate : 48.0 kHz
Frame rate : 93.750 FPS (512 SPF)
Bit depth : 24 bits
Compression mode : Lossless
Stream size : 1.70 GiB (9%)
Title : Original
Language : French
Default : No
Forced : No

Text
ID : 4
Format : UTF-8
Codec ID : S_TEXT/UTF8
Codec ID/Info : UTF-8 Plain Text
Duration : 1 h 9 min
Bit rate : 52 b/s
Frame rate : 0.185 FPS
Count of elements : 772
Stream size : 27.0 KiB (0%)
Title : Full
Language : English
Default : No
Forced : No

Menu
00:00:00.000 : Chapter 01
00:06:35.125 : Chapter 02
00:12:48.833 : Chapter 03
00:17:43.667 : Chapter 04
00:24:45.250 : Chapter 05
00:31:34.250 : Chapter 06
00:37:14.042 : Chapter 07
00:43:06.333 : Chapter 08
00:48:22.750 : Chapter 09
00:54:42.458 : Chapter 10
01:02:03.292 : Chapter 11
01:10:01.000 : Chapter 12

Другие фильмы
У данной публикации пока нет комментариев.
Будь первым, оставь своё мнение в комментариях!
Информация
Посетители, находящиеся в группе Гости, не могут оставлять комментарии к данной публикации.
Самый популярный релиз недели
BDRip 1080p 9.87 Gb ...

Кино копилка
...
Какую тему вы используете?

Реклама
Последние комментарии
...

Robot

Сегодня, 18:53

...

bere

Сегодня, 12:40

...

Chilly

Сегодня, 12:17

...

Desol

Вчера, 15:18

...

ArchieBlake

Вчера, 07:46

Реклама