+1

Сирано / Cyrano (2021) BDRip 720p от селезень | D

Информация о фильме
Название: Сирано
Оригинальное название: Cyrano
Год выхода: 2021
Жанр: мюзикл, драма, мелодрама
Режиссер: Джо Райт
В ролях: Питер Динклэйдж, Хейли Беннетт, Келвин Харрисон, Бен Мендельсон, Моника Долан, Башир Салахуддин, Джошуа Джеймс, Аньяна Васан, Рут Шин, Глен Хансард

О фильме: Сирано де Бержерак - человек, опередивший свое время - одинаково искусен в словесных и фехтовальных поединках. Убежденный в том, что изъяны внешности делают его недостойным любви преданной подруги, блистательной Роксаны, он не рискует открыть ей свои чувства, а Роксана, тем временем, влюбляется с первого взгляда в Кристиана.

Страна: Великобритания, Канада, США
Студия: Bron Studios, Metro-Goldwyn-Mayer (MGM), Universal Pictures, Working Title Films
Продолжительность: 02:03:15
Перевод: Дублированный | Пифагор

Качество: BDRip 720p
Видео: MPEG-4 AVC, 1280x536, 6330 Кbit/s, 23.976 fps
Аудио #01: 48 kHz, AC3, 2.0, 192 Kbps | Дублированный | Пифагор | RUS |Сирано / Cyrano (2021) BDRip 720p от селезень | D
Аудио #02: 48 kHz, AC3, 5.1, 640 Kbps | Оригинал | ENG |
Субтитры: Русские (Forced, full), английские

Сирано / Cyrano (2021) BDRip 720p от селезень | D

Авторизуйтесь для получения доступа к скачиванию

Нет аккаунта? Регистрация открыта и займёт меньше минуты

Вход Регистрация

General
Unique ID : 89202680143088103242193862987436739837 (0x431BCFB017D36A64DE448A2FE42B4CFD)
Complete name : F:\Video\Cyrano.2021.BDRip.720p.seleZen.mkv
Format : Matroska
Format version : Version 4
File size : 6.17 GiB
Duration : 2 h 3 min
Overall bit rate : 7 165 kb/s
Movie name : Cyrano 2021 from seleZen
Encoded date : UTC 2022-11-24 22:15:42
Writing application : mkvmerge v59.0.0 ('Shining Star') 64-bit
Writing library : libebml v1.4.2 + libmatroska v1.6.4

Video
ID : 1
Format : AVC
Format/Info : Advanced Video Codec
Format profile : [email protected]
Format settings : CABAC / 12 Ref Frames
Format settings, CABAC : Yes
Format settings, Reference : 12 frames
Codec ID : V_MPEG4/ISO/AVC
Duration : 2 h 3 min
Bit rate : 6 330 kb/s
Width : 1 280 pixels
Height : 536 pixels
Display aspect ratio : 2.40:1
Frame rate mode : Constant
Frame rate : 23.976 (24000/1001) FPS
Color space : YUV
Chroma subsampling : 4:2:0
Bit depth : 8 bits
Scan type : Progressive
Bits/(Pixel*Frame) : 0.385
Stream size : 5.45 GiB (88%)
Title : playHD
Writing library : x264 core 164 r3075+55M t_mod ~ Encoded by luvBB: JigSaw & droops16
Encoding settings : cabac=1 / ref=12 / deblock=1:-3:-3 / analyse=0x3:0x133 / me=umh / subme=10 / psy=1 / fade_compensate=0.00 / psy_rd=1.00:0.00 / mixed_ref=1 / me_range=32 / chroma_me=1 / trellis=2 / 8x8dct=1 / cqm=0 / deadzone=21,11 / fast_pskip=0 / chroma_qp_offset=-2 / threads=12 / lookahead_threads=2 / sliced_threads=0 / nr=0 / decimate=0 / interlaced=0 / bluray_compat=0 / constrained_intra=0 / fgo=0 / bframes=9 / b_pyramid=2 / b_adapt=2 / b_bias=0 / direct=3 / weightb=1 / open_gop=0 / weightp=2 / keyint=250 / keyint_min=23 / scenecut=40 / intra_refresh=0 / rc=crf / mbtree=0 / crf=14.9000 / qcomp=0.60 / qpmin=0:0:0 / qpmax=69:69:69 / qpstep=4 / ip_ratio=1.30 / pb_ratio=1.20 / aq=3:0.85 / aq-sensitivity=10.00 / aq-factor=1.00:1.00:1.00 / aq2=0 / aq3=0
Language : English
Default : Yes
Forced : No

Audio #1
ID : 2
Format : AC-3
Format/Info : Audio Coding 3
Commercial name : Dolby Digital
Codec ID : A_AC3
Duration : 2 h 3 min
Bit rate mode : Constant
Bit rate : 192 kb/s
Channel(s) : 2 channels
Channel layout : L R
Sampling rate : 48.0 kHz
Frame rate : 31.250 FPS (1536 SPF)
Compression mode : Lossy
Stream size : 169 MiB (3%)
Title : Dub
Language : Russian
Service kind : Complete Main
Default : Yes
Forced : Yes

Audio #2
ID : 3
Format : AC-3
Format/Info : Audio Coding 3
Commercial name : Dolby Digital
Codec ID : A_AC3
Duration : 2 h 3 min
Bit rate mode : Constant
Bit rate : 640 kb/s
Channel(s) : 6 channels
Channel layout : L R C LFE Ls Rs
Sampling rate : 48.0 kHz
Frame rate : 31.250 FPS (1536 SPF)
Compression mode : Lossy
Stream size : 564 MiB (9%)
Title : Original
Language : English
Service kind : Complete Main
Default : No
Forced : No

Text #1
ID : 4
Format : UTF-8
Codec ID : S_TEXT/UTF8
Codec ID/Info : UTF-8 Plain Text
Duration : 1 h 53 min
Bit rate : 24 b/s
Frame rate : 0.066 FPS
Count of elements : 445
Stream size : 20.2 KiB (0%)
Title : Forced
Language : Russian
Default : Yes
Forced : Yes

Text #2
ID : 5
Format : UTF-8
Codec ID : S_TEXT/UTF8
Codec ID/Info : UTF-8 Plain Text
Duration : 1 h 53 min
Bit rate : 73 b/s
Frame rate : 0.201 FPS
Count of elements : 1369
Stream size : 61.4 KiB (0%)
Title : Full
Language : Russian
Default : No
Forced : No

Text #3
ID : 6
Format : UTF-8
Codec ID : S_TEXT/UTF8
Codec ID/Info : UTF-8 Plain Text
Duration : 1 h 57 min
Bit rate : 67 b/s
Frame rate : 0.277 FPS
Count of elements : 1950
Stream size : 57.8 KiB (0%)
Title : Full
Language : English
Default : No
Forced : No

Text #4
ID : 7
Format : UTF-8
Codec ID : S_TEXT/UTF8
Codec ID/Info : UTF-8 Plain Text
Duration : 1 h 57 min
Bit rate : 74 b/s
Frame rate : 0.309 FPS
Count of elements : 2183
Stream size : 64.5 KiB (0%)
Title : SDH
Language : English
Default : No
Forced : No

Menu
00:00:00.000 : Chapter 01
00:08:05.860 : Chapter 02
00:19:01.766 : Chapter 03
00:27:09.378 : Chapter 04
00:30:47.012 : Chapter 05
00:37:32.917 : Chapter 06
00:43:56.050 : Chapter 07
00:47:38.731 : Chapter 08
00:51:26.166 : Chapter 09
00:53:31.250 : Chapter 10
00:58:43.270 : Chapter 11
01:05:29.551 : Chapter 12
01:15:32.528 : Chapter 13
01:23:13.530 : Chapter 14
01:27:38.837 : Chapter 15
01:32:47.479 : Chapter 16
01:40:25.603 : Chapter 17
01:43:17.358 : Chapter 18
01:51:12.249 : Chapter 19
01:55:40.100 : Chapter 20

Другие фильмы
У данной публикации пока нет комментариев.
Будь первым, оставь своё мнение в комментариях!
Информация
Посетители, находящиеся в группе Гости, не могут оставлять комментарии к данной публикации.
Самый популярный релиз недели
BDRip 1080p 9.87 Gb ...

Кино копилка
...
Какую тему вы используете?

Реклама
Последние комментарии
...

bere

Сегодня, 12:40

...

Chilly

Сегодня, 12:17

...

Desol

Вчера, 15:18

...

ArchieBlake

Вчера, 07:46

...

павел

Вчера, 05:13

Реклама