+11

Чёрный Адам / Black Adam (2022) WEB-DL 1080p от селезень | D, P

Информация о фильме
Название: Чёрный Адам
Оригинальное название: Black Adam
Год выхода: 2022
Жанр: фантастика, фэнтези, боевик, приключения
Режиссер: Жауме Кольет-Серра
В ролях: Дуэйн Джонсон, Элдис Ходж, Пирс Броснан, Ной Сентинео, Сара Шахи, Куинтесса Суинделл, Марван Кензари, Бодхи Сабонгуй, Мохаммед Амер, Джеймс Мойер

О фильме: 5000 лет назад Чёрный Адам был наделен силами египетских богов и заключён в тюрьму. Теперь он освобождается из своей усыпальницы и готовится явить миру уникальный подход к борьбе за справедливость.

Страна: США, Канада, Новая Зеландия, Венгрия
Студия: 7 Bucks Productions, DC Entertainment, Flynn Picture Company, New Line Cinema, Warner Bros.
Продолжительность: 02:04:50
Перевод(ы):
#1: Дублированный | Bravo Records Georgia
#2: Профессиональный многоголосый | Jaskier
#3: Профессиональный многоголосый | NewComers
#4: Профессиональный многоголосый | TVShows


Качество: WEB-DL 1080p
Видео: MPEG-4 AVC, 1920x1080, 7871 Kbit/s, 23.976 fps
Аудио #01: 48 kHz, AC3, 5.1, 384 Kbps | Дублированный | Bravo Records Georgia | RUS |Чёрный Адам / Black Adam (2022) WEB-DL 1080p от селезень | D, P
Аудио #02: 48 kHz, AC3, 5.1, 384 Kbps | Профессиональный многоголосый | jaskier | RUS |
Аудио #03: 48 kHz, AC3, 5.1, 640 Kbps | Профессиональный многоголосый | NewComers | RUS |
Аудио #04: 48 kHz, AC3, 2.0, 192 Kbps | Профессиональный многоголосый | TVShows | RUS |
Аудио #05: 48 kHz, E-AC3+Atmos, 5.1, 768 Kbps | Оригинал | ENG |
Субтитры: Русские (2 x Forced, 2 x full), английские

Чёрный Адам / Black Adam (2022) WEB-DL 1080p от селезень | D, P

Авторизуйтесь для получения доступа к скачиванию

Нет аккаунта? Регистрация открыта и займёт меньше минуты

Вход Регистрация

General
Unique ID : 141375325466526705958287576079400530456 (0x6A5BE5B3933536B37618701A87697218)
Complete name : D:\Videos\Black.Adam.2022.WEB-DL.1080p.seleZen.mkv
Format : Matroska
Format version : Version 4
File size : 8.93 GiB
Duration : 2 h 4 min
Overall bit rate : 10.2 Mb/s
Movie name : Black Adam 2022 from seleZen
Encoded date : UTC 2022-11-26 07:44:11
Writing application : mkvmerge v59.0.0 ('Shining Star') 64-bit
Writing library : libebml v1.4.2 + libmatroska v1.6.4

Video
ID : 1
Format : AVC
Format/Info : Advanced Video Codec
Format profile : [email protected]
Format settings : CABAC / 4 Ref Frames
Format settings, CABAC : Yes
Format settings, Reference : 4 frames
Codec ID : V_MPEG4/ISO/AVC
Duration : 2 h 4 min
Bit rate : 7 871 kb/s
Width : 1 920 pixels
Height : 1 080 pixels
Display aspect ratio : 16:9
Frame rate mode : Constant
Frame rate : 23.976 (24000/1001) FPS
Color space : YUV
Chroma subsampling : 4:2:0
Bit depth : 8 bits
Scan type : Progressive
Bits/(Pixel*Frame) : 0.158
Stream size : 6.86 GiB (77%)
Language : English
Default : Yes
Forced : No
Color range : Limited
Color primaries : BT.709
Transfer characteristics : BT.709
Matrix coefficients : BT.709

Audio #1
ID : 2
Format : AC-3
Format/Info : Audio Coding 3
Commercial name : Dolby Digital
Codec ID : A_AC3
Duration : 2 h 4 min
Bit rate mode : Constant
Bit rate : 384 kb/s
Channel(s) : 6 channels
Channel layout : L R C LFE Ls Rs
Sampling rate : 48.0 kHz
Frame rate : 31.250 FPS (1536 SPF)
Compression mode : Lossy
Stream size : 343 MiB (4%)
Title : Dub
Language : Russian
Service kind : Complete Main
Default : Yes
Forced : Yes

Audio #2
ID : 3
Format : AC-3
Format/Info : Audio Coding 3
Commercial name : Dolby Digital
Codec ID : A_AC3
Duration : 2 h 4 min
Bit rate mode : Constant
Bit rate : 384 kb/s
Channel(s) : 6 channels
Channel layout : L R C LFE Ls Rs
Sampling rate : 48.0 kHz
Frame rate : 31.250 FPS (1536 SPF)
Compression mode : Lossy
Stream size : 343 MiB (4%)
Title : MVO [Jaskier]
Language : Russian
Service kind : Complete Main
Default : No
Forced : No

Audio #3
ID : 4
Format : AC-3
Format/Info : Audio Coding 3
Commercial name : Dolby Digital
Codec ID : A_AC3
Duration : 2 h 4 min
Bit rate mode : Constant
Bit rate : 640 kb/s
Channel(s) : 6 channels
Channel layout : L R C LFE Ls Rs
Sampling rate : 48.0 kHz
Frame rate : 31.250 FPS (1536 SPF)
Compression mode : Lossy
Stream size : 572 MiB (6%)
Title : MVO [NewComers]
Language : Russian
Service kind : Complete Main
Default : No
Forced : No

Audio #4
ID : 5
Format : AC-3
Format/Info : Audio Coding 3
Commercial name : Dolby Digital
Codec ID : A_AC3
Duration : 2 h 4 min
Bit rate mode : Constant
Bit rate : 192 kb/s
Channel(s) : 2 channels
Channel layout : L R
Sampling rate : 48.0 kHz
Frame rate : 31.250 FPS (1536 SPF)
Compression mode : Lossy
Stream size : 171 MiB (2%)
Title : MVO [TVShows]
Language : Russian
Service kind : Complete Main
Default : No
Forced : No

Audio #5
ID : 6
Format : E-AC-3 JOC
Format/Info : Enhanced AC-3 with Joint Object Coding
Commercial name : Dolby Digital Plus with Dolby Atmos
Codec ID : A_EAC3
Duration : 2 h 4 min
Bit rate mode : Constant
Bit rate : 768 kb/s
Channel(s) : 6 channels
Channel layout : L R C LFE Ls Rs
Sampling rate : 48.0 kHz
Frame rate : 31.250 FPS (1536 SPF)
Compression mode : Lossy
Delay relative to video : 83 ms
Stream size : 686 MiB (7%)
Title : Original
Language : English
Service kind : Complete Main
Default : No
Forced : No
Complexity index : 16
Number of dynamic objects : 15
Bed channel count : 1 channel
Bed channel configuration : LFE

Text #1
ID : 7
Format : UTF-8
Codec ID : S_TEXT/UTF8
Codec ID/Info : UTF-8 Plain Text
Duration : 2 h 3 min
Bit rate : 4 b/s
Frame rate : 0.014 FPS
Count of elements : 102
Stream size : 3.87 KiB (0%)
Title : Forced [off]
Language : Russian
Default : Yes
Forced : Yes

Text #2
ID : 8
Format : UTF-8
Codec ID : S_TEXT/UTF8
Codec ID/Info : UTF-8 Plain Text
Duration : 1 h 55 min
Bit rate : 3 b/s
Frame rate : 0.013 FPS
Count of elements : 88
Stream size : 3.34 KiB (0%)
Title : Forced [v.2]
Language : Russian
Default : No
Forced : No

Text #3
ID : 9
Format : UTF-8
Codec ID : S_TEXT/UTF8
Codec ID/Info : UTF-8 Plain Text
Duration : 2 h 3 min
Bit rate : 68 b/s
Frame rate : 0.175 FPS
Count of elements : 1297
Stream size : 62.0 KiB (0%)
Title : Full [off]
Language : Russian
Default : No
Forced : No

Text #4
ID : 10
Format : UTF-8
Codec ID : S_TEXT/UTF8
Codec ID/Info : UTF-8 Plain Text
Duration : 1 h 56 min
Bit rate : 73 b/s
Frame rate : 0.159 FPS
Count of elements : 1113
Stream size : 62.8 KiB (0%)
Title : Full [v.2]
Language : Russian
Default : No
Forced : No

Text #5
ID : 11
Format : UTF-8
Codec ID : S_TEXT/UTF8
Codec ID/Info : UTF-8 Plain Text
Duration : 1 h 42 min
Bit rate : 2 b/s
Frame rate : 0.012 FPS
Count of elements : 76
Stream size : 1.61 KiB (0%)
Title : Forced
Language : English
Default : No
Forced : No

Text #6
ID : 12
Format : UTF-8
Codec ID : S_TEXT/UTF8
Codec ID/Info : UTF-8 Plain Text
Duration : 1 h 42 min
Bit rate : 2 b/s
Frame rate : 0.012 FPS
Count of elements : 76
Stream size : 1.61 KiB (0%)
Title : Full
Language : English
Default : No
Forced : No

Text #7
ID : 13
Format : UTF-8
Codec ID : S_TEXT/UTF8
Codec ID/Info : UTF-8 Plain Text
Duration : 1 h 56 min
Bit rate : 58 b/s
Frame rate : 0.253 FPS
Count of elements : 1769
Stream size : 50.2 KiB (0%)
Title : SDH
Language : English
Default : No
Forced : No

Menu
00:00:00.000 : Chapter 01
00:10:22.000 : Chapter 02
00:19:56.000 : Chapter 03
00:29:28.000 : Chapter 04
00:38:32.000 : Chapter 05
00:50:39.000 : Chapter 06
01:00:17.000 : Chapter 07
01:09:40.000 : Chapter 08
01:19:31.000 : Chapter 09
01:29:06.000 : Chapter 10
01:40:14.000 : Chapter 11
01:49:34.000 : Chapter 12
01:53:06.000 : Chapter 13

Другие фильмы
Комментарии:

...
Desol 29 ноября 2022 00:09
0

dembell56,добавили

...
quatro78 28 ноября 2022 12:46
0

Здравствуйте, смотрел фильм в кинотеатре, мне понравился, скачивал его на 720p, фильм был не на весь экран, с чёрными вставками сверху и снизу, а можно узнать, здесь также

Информация
Посетители, находящиеся в группе Гости, не могут оставлять комментарии к данной публикации.
Самый популярный релиз недели
BDRip 1080p 9.87 Gb ...

Кино копилка
...
Какую тему вы используете?

Реклама
Последние комментарии
...

bere

Сегодня, 12:40

...

Chilly

Сегодня, 12:17

...

Desol

Вчера, 15:18

...

ArchieBlake

Вчера, 07:46

...

павел

Вчера, 05:13

Реклама