+3

Преступница Эмили / Emily the Criminal (2022) BDRemux 1080p от селезень | P, A

Информация о фильме
Название: Преступница Эмили
Оригинальное название: Emily the Criminal
Год выхода: 2022
Жанр: драма, криминал
Режиссер: Джон Паттон Форд
В ролях: Обри Плаза, Тео Росси, Рой Авигдори, Ким Ярбро, Джина Гершон, Бернардо Бадилло, Уэсли Хань, Уайатт Бэрриос, Мэгалин Эчиканвоке, Брэндон Скленар

О фильме: Имея судимость, Эмили никак не может устроиться на приличную работу и подрабатывает курьером в службе доставки еды. Этого катастрофически не хватает на покрытие долгов, поэтому девушка соглашается подменить коллегу в сомнительном мероприятии, где обещают мгновенную выплату. Так Эмили втягивается в мошенническую схему с кредитными картами.

Страна: США
Студия: Low Spark Films
Продолжительность: 01:36:52
Перевод(ы):
#1: Профессиональный многоголосый | Jaskier
#2: Авторский | М. Яроцкий


Качество: BDRemux 1080p
Видео: MPEG-4 AVC, 1920x1080, 26.3 Mbit/s, 23.976 fps
Аудио #01: 48 kHz, AC3, 5.1, 448 Kbps | Профессиональный многоголосый | Jaskier | RUS |Преступница Эмили / Emily the Criminal (2022) BDRemux 1080p от селезень | P, A
Аудио #02: 48 kHz, AC3, 5.1, 448 Kbps | Авторский | М. Яроцкий | RUS |
Аудио #03: 48 kHz, DTS-HD MA, 5.1, 3511 Kbps | Оригинал | ENG |
Субтитры: Английские

Преступница Эмили / Emily the Criminal (2022) BDRemux 1080p от селезень | P, A

Авторизуйтесь для получения доступа к скачиванию

Нет аккаунта? Регистрация открыта и займёт меньше минуты

Вход Регистрация

General
Unique ID : 253557473904913085370398372273152796807 (0xBEC164A63E305604518E9FC4504B2887)
Complete name : F:\Video\Emily.the.Criminal.2022.BDREMUX.1080p.seleZen.mkv
Format : Matroska
Format version : Version 4
File size : 20.8 GiB
Duration : 1 h 36 min
Overall bit rate mode : Variable
Overall bit rate : 30.8 Mb/s
Movie name : Emily the Criminal 2022 from seleZen
Encoded date : UTC 2022-11-24 07:42:42
Writing application : mkvmerge v59.0.0 ('Shining Star') 64-bit
Writing library : libebml v1.4.2 + libmatroska v1.6.4

Video
ID : 1
ID in the original source m : 4113 (0x1011)
Format : AVC
Format/Info : Advanced Video Codec
Format profile : [email protected]
Format settings : CABAC / 4 Ref Frames
Format settings, CABAC : Yes
Format settings, Reference : 4 frames
Codec ID : V_MPEG4/ISO/AVC
Duration : 1 h 36 min
Bit rate mode : Variable
Bit rate : 26.3 Mb/s
Maximum bit rate : 38.0 Mb/s
Width : 1 920 pixels
Height : 1 080 pixels
Display aspect ratio : 16:9
Frame rate mode : Constant
Frame rate : 23.976 (24000/1001) FPS
Color space : YUV
Chroma subsampling : 4:2:0
Bit depth : 8 bits
Scan type : Progressive
Bits/(Pixel*Frame) : 0.530
Stream size : 17.8 GiB (86%)
Language : English
Default : No
Forced : No
Original source medium : Blu-ray

Audio #1
ID : 2
Format : AC-3
Format/Info : Audio Coding 3
Commercial name : Dolby Digital
Codec ID : A_AC3
Duration : 1 h 36 min
Bit rate mode : Constant
Bit rate : 448 kb/s
Channel(s) : 6 channels
Channel layout : L R C LFE Ls Rs
Sampling rate : 48.0 kHz
Frame rate : 31.250 FPS (1536 SPF)
Compression mode : Lossy
Stream size : 310 MiB (1%)
Title : MVO [Jaskier]
Language : Russian
Service kind : Complete Main
Default : Yes
Forced : Yes

Audio #2
ID : 3
Format : AC-3
Format/Info : Audio Coding 3
Commercial name : Dolby Digital
Codec ID : A_AC3
Duration : 1 h 36 min
Bit rate mode : Constant
Bit rate : 448 kb/s
Channel(s) : 6 channels
Channel layout : L R C LFE Ls Rs
Sampling rate : 48.0 kHz
Frame rate : 31.250 FPS (1536 SPF)
Compression mode : Lossy
Stream size : 310 MiB (1%)
Title : AVO [М. Яроцкий]
Language : Russian
Service kind : Complete Main
Default : No
Forced : No

Audio #3
ID : 4
ID in the original source m : 4352 (0x1100)
Format : DTS XLL
Format/Info : Digital Theater Systems
Commercial name : DTS-HD Master Audio
Codec ID : A_DTS
Duration : 1 h 36 min
Bit rate mode : Variable
Bit rate : 3 511 kb/s
Channel(s) : 6 channels
Channel layout : C L R Ls Rs LFE
Sampling rate : 48.0 kHz
Frame rate : 93.750 FPS (512 SPF)
Bit depth : 24 bits
Compression mode : Lossless
Stream size : 2.38 GiB (11%)
Title : Original
Language : English
Default : No
Forced : No
Original source medium : Blu-ray

Text #1
ID : 5
Format : UTF-8
Codec ID : S_TEXT/UTF8
Codec ID/Info : UTF-8 Plain Text
Duration : 1 h 27 min
Bit rate : 46 b/s
Frame rate : 0.223 FPS
Count of elements : 1173
Stream size : 30.0 KiB (0%)
Title : Full
Language : English
Default : No
Forced : No

Text #2
ID : 6
Format : UTF-8
Codec ID : S_TEXT/UTF8
Codec ID/Info : UTF-8 Plain Text
Duration : 1 h 35 min
Bit rate : 49 b/s
Frame rate : 0.241 FPS
Count of elements : 1380
Stream size : 35.0 KiB (0%)
Title : SDH
Language : English
Default : No
Forced : No

Menu
00:00:00.000 : Chapter 01
00:11:04.330 : Chapter 02
00:22:02.904 : Chapter 03
00:32:56.182 : Chapter 04
00:42:10.569 : Chapter 05
00:51:05.437 : Chapter 06
01:00:19.699 : Chapter 07
01:11:58.188 : Chapter 08
01:20:01.797 : Chapter 09
01:27:49.430 : Chapter 10
01:36:50.888 : Chapter 11

Другие фильмы
У данной публикации пока нет комментариев.
Будь первым, оставь своё мнение в комментариях!
Информация
Посетители, находящиеся в группе Гости, не могут оставлять комментарии к данной публикации.
Самый популярный релиз недели
BDRip 1080p 9.87 Gb ...

Кино копилка
...
Какую тему вы используете?

Реклама
Последние комментарии
...

bere

Сегодня, 12:40

...

Chilly

Сегодня, 12:17

...

Desol

Вчера, 15:18

...

ArchieBlake

Вчера, 07:46

...

павел

Вчера, 05:13

Реклама