+2

Зачарованная 2 / Disenchanted (2022) WEB-DL 1080p от селезень | P

Информация о фильме
Название: Зачарованная 2
Оригинальное название: Disenchanted
Год выхода: 2022
Жанр: мюзикл, фэнтези, мелодрама, комедия, приключения, семейный
Режиссер: Адам Шенкман
В ролях: Эми Адамс, Патрик Демпси, Майя Рудольф, Габриелла Бальдаккино, Rachel Duff, Джеймс Марсден, Идина Мензел, Иветт Николь Браун, Джейма Мейс, Колтон Стюарт

О фильме: Прожив в Нью-Йорке 10 лет, принцесса Жизель разочаровывается в реальной жизни начинает скучать по сказочной.

Страна: США
Студия: Andalasia Productions, Josephson Entertainment, Right Coast Productions, Walt Disney Pictures
Продолжительность: 01:58:16
Перевод: Профессиональный многоголосый | Jaskier

Качество: WEB-DL 1080p
Видео: MPEG-4 AVC, 1920x1080, 6650 Kbit/s, 24.000 fps
Аудио #01: 48 kHz, AC3, 5.1, 384 Kbps | Профессиональный многоголосый | Jaskier | RUS |Зачарованная 2 / Disenchanted (2022) WEB-DL 1080p от селезень | P
Аудио #02: 48 kHz, E-AC3+Atmos, 5.1, 768 Kbps | Оригинал | ENG |
Субтитры: Английские

Зачарованная 2 / Disenchanted (2022) WEB-DL 1080p от селезень | P

Авторизуйтесь для получения доступа к скачиванию

Нет аккаунта? Регистрация открыта и займёт меньше минуты

Вход Регистрация

General
Unique ID : 163886302394167040081801972985568956240 (0x7B4B5A8DC281D175A5D336D5C2F00F50)
Complete name : D:\Videos\Disenchanted.2022.WEB-DL.1080p.seleZen.mkv
Format : Matroska
Format version : Version 4
File size : 6.45 GiB
Duration : 1 h 58 min
Overall bit rate mode : Variable
Overall bit rate : 7 805 kb/s
Movie name : Disenchanted 2022 from seleZen
Encoded date : UTC 2022-11-23 09:19:56
Writing application : mkvmerge v59.0.0 ('Shining Star') 64-bit
Writing library : libebml v1.4.2 + libmatroska v1.6.4

Video
ID : 1
Format : AVC
Format/Info : Advanced Video Codec
Format profile : [email protected]
Format settings : CABAC / 4 Ref Frames
Format settings, CABAC : Yes
Format settings, Reference : 4 frames
Codec ID : V_MPEG4/ISO/AVC
Duration : 1 h 58 min
Bit rate mode : Variable
Bit rate : 6 650 kb/s
Maximum bit rate : 12.7 Mb/s
Width : 1 920 pixels
Height : 1 080 pixels
Display aspect ratio : 16:9
Frame rate mode : Constant
Frame rate : 24.000 FPS
Color space : YUV
Chroma subsampling : 4:2:0
Bit depth : 8 bits
Scan type : Progressive
Bits/(Pixel*Frame) : 0.134
Stream size : 5.49 GiB (85%)
Language : English
Default : Yes
Forced : No
Color range : Limited
Color primaries : BT.709
Transfer characteristics : BT.709
Matrix coefficients : BT.709

Audio #1
ID : 2
Format : AC-3
Format/Info : Audio Coding 3
Commercial name : Dolby Digital
Codec ID : A_AC3
Duration : 1 h 58 min
Bit rate mode : Constant
Bit rate : 384 kb/s
Channel(s) : 6 channels
Channel layout : L R C LFE Ls Rs
Sampling rate : 48.0 kHz
Frame rate : 31.250 FPS (1536 SPF)
Compression mode : Lossy
Stream size : 325 MiB (5%)
Title : MVO [Jaskier]
Language : Russian
Service kind : Complete Main
Default : Yes
Forced : Yes

Audio #2
ID : 3
Format : E-AC-3 JOC
Format/Info : Enhanced AC-3 with Joint Object Coding
Commercial name : Dolby Digital Plus with Dolby Atmos
Codec ID : A_EAC3
Duration : 1 h 58 min
Bit rate mode : Constant
Bit rate : 768 kb/s
Channel(s) : 6 channels
Channel layout : L R C LFE Ls Rs
Sampling rate : 48.0 kHz
Frame rate : 31.250 FPS (1536 SPF)
Compression mode : Lossy
Stream size : 650 MiB (10%)
Title : Original
Language : English
Service kind : Complete Main
Default : No
Forced : No
Complexity index : 16
Number of dynamic objects : 15
Bed channel count : 1 channel
Bed channel configuration : LFE

Text #1
ID : 4
Format : UTF-8
Codec ID : S_TEXT/UTF8
Codec ID/Info : UTF-8 Plain Text
Duration : 1 h 48 min
Bit rate : 70 b/s
Frame rate : 0.274 FPS
Count of elements : 1779
Stream size : 55.8 KiB (0%)
Title : Full
Language : English
Default : No
Forced : No

Text #2
ID : 5
Format : UTF-8
Codec ID : S_TEXT/UTF8
Codec ID/Info : UTF-8 Plain Text
Duration : 1 h 48 min
Bit rate : 82 b/s
Frame rate : 0.322 FPS
Count of elements : 2097
Stream size : 65.7 KiB (0%)
Title : SDH
Language : English
Default : No
Forced : No

Другие фильмы
У данной публикации пока нет комментариев.
Будь первым, оставь своё мнение в комментариях!
Информация
Посетители, находящиеся в группе Гости, не могут оставлять комментарии к данной публикации.
Самый популярный релиз недели
BDRip 1080p 9.87 Gb ...

Кино копилка
...
Какую тему вы используете?

Реклама
Последние комментарии
...

bere

Сегодня, 12:40

...

Chilly

Сегодня, 12:17

...

Desol

Вчера, 15:18

...

ArchieBlake

Вчера, 07:46

...

павел

Вчера, 05:13

Реклама