+6

Вилли Вонка и шоколадная фабрика / Willy Wonka & the Chocolate Factory (1971) UHD BDRemux 2160p от селезень | 4K | HDR | P

Информация о фильме
Название: Вилли Вонка и шоколадная фабрика
Оригинальное название: Willy Wonka & the Chocolate Factory
Год выхода: 1971
Жанр: мюзикл, фэнтези, семейный
Режиссер: Мэл Стюарт
В ролях: Джин Уайлдер, Джек Альбертсон, Питер Острум, Рой Киннер, Джули Доун Коул, Леонард Стоун, Денис Никерсон, Нора Денни, Пэрис Теммен, Урсула Райт

О фильме: Эксцентричный кондитер Вилли Вонка способен осуществить мечты любого ребенка. В качестве коммерческого приема он спрятал пять золотых билетов в шоколадные батончики и решил испытать честность победителей. Но во время тура по стране лакомств необходимо соблюдать твердые правила, иначе не будет самой главной награды - пожизненного обеспечения шоколадом Вилли Вонка.

Страна: США
Студия: Wolper Pictures
Продолжительность: 01:39:37
Перевод(ы):
#1: Профессиональный многоголосый | Варус-Видео
#2: Профессиональный многоголосый | Карусель


Качество: BDRemux 2160p
Видео: 3840x2160 at 23.976 fps, MPEG-H HEVC HDR ~ 75800 kbps avg
Аудио #01: 48 kHz, AC3, 2.0, 192 Kbps | Профессиональный многоголосый | Варус-Видео | RUS |Вилли Вонка и шоколадная фабрика / Willy Wonka & the Chocolate Factory (1971) UHD BDRemux 2160p от селезень | 4K | HDR | P
Аудио #02: 48 kHz, AC3, 5.1, 448 Kbps | Профессиональный многоголосый | Карусель | RUS |
Аудио #03: 48 kHz, DTS-HD MA, 5.1, 3472 Kbps | Оригинал | ENG |
Субтитры: Русские (Full), английские

Вилли Вонка и шоколадная фабрика / Willy Wonka & the Chocolate Factory (1971) UHD BDRemux 2160p от селезень | 4K | HDR | P

Авторизуйтесь для получения доступа к скачиванию

Нет аккаунта? Регистрация открыта и займёт меньше минуты

Вход Регистрация

General
Unique ID : 206120181860357160866533357101605725721 (0x9B114D93F267B324F198FB08CCEC2619)
Complete name : D:\Videos\Willy.Wonka.and.the.Chocolate.Factory.1971.BDREMUX.2160p.seleZen.mkv
Format : Matroska
Format version : Version 4
File size : 55.6 GiB
Duration : 1 h 39 min
Overall bit rate mode : Variable
Overall bit rate : 79.9 Mb/s
Movie name : Willy Wonka & the Chocolate Factory 1971 from seleZen
Encoded date : UTC 2022-11-22 14:28:37
Writing application : mkvmerge v59.0.0 ('Shining Star') 64-bit
Writing library : libebml v1.4.2 + libmatroska v1.6.4

Video
ID : 1
Format : HEVC
Format/Info : High Efficiency Video Coding
Format profile : Main [email protected]@High
HDR format : SMPTE ST 2086, HDR10 compatible
Codec ID : V_MPEGH/ISO/HEVC
Duration : 1 h 39 min
Bit rate : 75.8 Mb/s
Width : 3 840 pixels
Height : 2 160 pixels
Display aspect ratio : 16:9
Frame rate mode : Constant
Frame rate : 23.976 (24000/1001) FPS
Color space : YUV
Chroma subsampling : 4:2:0 (Type 2)
Bit depth : 10 bits
Bits/(Pixel*Frame) : 0.381
Stream size : 52.8 GiB (95%)
Language : English
Default : Yes
Forced : No
Color range : Limited
Color primaries : BT.2020
Transfer characteristics : PQ
Matrix coefficients : BT.2020 non-constant
Mastering display color pri : Display P3
Mastering display luminance : min: 0.0050 cd/m2, max: 4000 cd/m2
Maximum Content Light Level : 3112 cd/m2
Maximum Frame-Average Light : 252 cd/m2

Audio #1
ID : 2
Format : AC-3
Format/Info : Audio Coding 3
Commercial name : Dolby Digital
Codec ID : A_AC3
Duration : 1 h 39 min
Bit rate mode : Constant
Bit rate : 192 kb/s
Channel(s) : 2 channels
Channel layout : L R
Sampling rate : 48.0 kHz
Frame rate : 31.250 FPS (1536 SPF)
Compression mode : Lossy
Stream size : 137 MiB (0%)
Title : MVO [Варус-Видео]
Language : Russian
Service kind : Complete Main
Default : Yes
Forced : Yes

Audio #2
ID : 3
Format : AC-3
Format/Info : Audio Coding 3
Commercial name : Dolby Digital
Codec ID : A_AC3
Duration : 1 h 39 min
Bit rate mode : Constant
Bit rate : 448 kb/s
Channel(s) : 6 channels
Channel layout : L R C LFE Ls Rs
Sampling rate : 48.0 kHz
Frame rate : 31.250 FPS (1536 SPF)
Compression mode : Lossy
Stream size : 319 MiB (1%)
Title : MVO [Карусель]
Language : Russian
Service kind : Complete Main
Default : No
Forced : No

Audio #3
ID : 4
Format : DTS XLL
Format/Info : Digital Theater Systems
Commercial name : DTS-HD Master Audio
Codec ID : A_DTS
Duration : 1 h 39 min
Bit rate mode : Variable
Bit rate : 3 472 kb/s
Channel(s) : 6 channels
Channel layout : C L R Ls Rs LFE
Sampling rate : 48.0 kHz
Frame rate : 93.750 FPS (512 SPF)
Bit depth : 24 bits
Compression mode : Lossless
Stream size : 2.42 GiB (4%)
Title : Original
Language : English
Default : No
Forced : No

Text #1
ID : 5
Format : UTF-8
Codec ID : S_TEXT/UTF8
Codec ID/Info : UTF-8 Plain Text
Duration : 1 h 10 min
Bit rate : 117 b/s
Frame rate : 0.257 FPS
Count of elements : 1091
Stream size : 60.8 KiB (0%)
Title : Full
Language : Russian
Default : No
Forced : No

Text #2
ID : 6
Format : UTF-8
Codec ID : S_TEXT/UTF8
Codec ID/Info : UTF-8 Plain Text
Duration : 33 min 19 s
Bit rate : 73 b/s
Frame rate : 0.269 FPS
Count of elements : 538
Stream size : 18.0 KiB (0%)
Title : Full
Language : English
Default : No
Forced : No

Text #3
ID : 7
Format : UTF-8
Codec ID : S_TEXT/UTF8
Codec ID/Info : UTF-8 Plain Text
Duration : 33 min 53 s
Bit rate : 78 b/s
Frame rate : 0.276 FPS
Count of elements : 561
Stream size : 19.6 KiB (0%)
Title : SDH
Language : English
Default : No
Forced : No

Menu
00:00:00.000 : Глава 01
00:02:15.135 : Глава 02
00:05:15.232 : Глава 03
00:10:01.100 : Глава 04
00:11:38.698 : Глава 05
00:13:03.616 : Глава 06
00:14:20.234 : Глава 07
00:15:33.766 : Глава 08
00:17:41.310 : Глава 09
00:19:28.000 : Глава 10
00:20:38.612 : Глава 11
00:22:22.633 : Глава 12
00:25:00.582 : Глава 13
00:25:59.183 : Глава 14
00:30:00.298 : Глава 15
00:33:15.076 : Глава 16
00:35:03.768 : Глава 17
00:36:33.691 : Глава 18
00:38:20.465 : Глава 19
00:41:59.016 : Глава 20
00:43:44.622 : Глава 21
00:47:25.593 : Глава 22
00:51:39.471 : Глава 23
00:56:07.698 : Глава 24
00:58:07.109 : Глава 25
01:00:55.861 : Глава 26
01:03:07.450 : Глава 27
01:05:41.604 : Глава 28
01:07:55.446 : Глава 29
01:10:19.549 : Глава 30
01:14:35.137 : Глава 31
01:15:17.263 : Глава 32
01:19:01.111 : Глава 33
01:23:17.993 : Глава 34
01:24:10.295 : Глава 35
01:26:38.276 : Глава 36
01:30:24.336 : Глава 37
01:31:29.275 : Глава 38
01:35:34.145 : Глава 39
01:36:56.436 : Глава 40

Другие фильмы
У данной публикации пока нет комментариев.
Будь первым, оставь своё мнение в комментариях!
Информация
Посетители, находящиеся в группе Гости, не могут оставлять комментарии к данной публикации.
Самый популярный релиз недели
BDRip 1080p 9.87 Gb ...

Кино копилка
...
Какую тему вы используете?

Реклама
Последние комментарии
...

bere

Сегодня, 12:40

...

Chilly

Сегодня, 12:17

...

Desol

Вчера, 15:18

...

ArchieBlake

Вчера, 07:46

...

павел

Вчера, 05:13

Реклама