+2

Учителю, с любовью / To Sir, with Love (1967) UHD BDRemux 2160p от селезень | 4K | HDR | P2

Информация о фильме
Название: Учителю, с любовью
Оригинальное название: To Sir, with Love
Год выхода: 1967
Жанр: драма
Режиссер: Джеймс Клавелл
В ролях: Сидни Пуатье, Кристиан Робертс, Джуди Гисон, Сьюзи Кендалл, Энн Белл, Джеффри Бэйлдон, Фэйт Брук, Патриция Рутледж, Крис Читтел, Эдриэнн Поста

О фильме: Выпускник университета, не найдя работы по специальности, соглашается на должность учителя в школе для трудных подростков. Работая в школе и параллельно рассылая своё резюме, он в итоге получает приглашение на должность инженера в какой-то фирме. Но не уходит сразу, а решает довести класс до конца учебного года. За это время дети меняются и проникаются любовью к своему учителю. На выпускном вечере учитель принимает решение остаться в школе навсегда и рвёт приглашение на работу инженером...

Страна: Великобритания
Студия: Columbia British Productions Ltd., Columbia Pictures Corporation
Продолжительность: 01:45:02
Перевод: Профессиональный двухголосый | NLS

Качество: BDRemux 2160p
Видео: 3840x2160 at 23.976 fps, MPEG-H HEVC HDR ~ 55200 kbps avg
Аудио #01: 48 kHz, AC3, 2.0, 192 Kbps | Профессиональный двухголосый | NLS | RUS |Учителю, с любовью / To Sir, with Love (1967) UHD BDRemux 2160p от селезень | 4K | HDR | P2
Аудио #02: 48 kHz, TrueHD, 7.1, 3203 Kbps | Оригинал | ENG |
Аудио #03: 48 kHz, AC3, 5.1, 640 Kbps | Оригинал | ENG |
Субтитры: Английские

Учителю, с любовью / To Sir, with Love (1967) UHD BDRemux 2160p от селезень | 4K | HDR | P2

Авторизуйтесь для получения доступа к скачиванию

Нет аккаунта? Регистрация открыта и займёт меньше минуты

Вход Регистрация

General
Unique ID : 240496611103224544407344851339879728598 (0xB4EDF665664C8E333A0D257499D545D6)
Complete name : D:\Videos\To.Sir.with.Love.1967.BDREMUX.2160p.HDR.seleZen.mkv
Format : Matroska
Format version : Version 4
File size : 43.5 GiB
Duration : 1 h 45 min
Overall bit rate mode : Variable
Overall bit rate : 59.3 Mb/s
Movie name : To Sir, with Love 1967 from seleZen
Encoded date : UTC 2022-11-22 15:07:24
Writing application : mkvmerge v59.0.0 ('Shining Star') 64-bit
Writing library : libebml v1.4.2 + libmatroska v1.6.4

Video
ID : 1
Format : HEVC
Format/Info : High Efficiency Video Coding
Format profile : Main [email protected]@High
HDR format : SMPTE ST 2086, HDR10 compatible
Codec ID : V_MPEGH/ISO/HEVC
Duration : 1 h 45 min
Bit rate : 55.2 Mb/s
Width : 3 840 pixels
Height : 2 160 pixels
Display aspect ratio : 16:9
Frame rate mode : Constant
Frame rate : 23.976 (24000/1001) FPS
Color space : YUV
Chroma subsampling : 4:2:0 (Type 2)
Bit depth : 10 bits
Bits/(Pixel*Frame) : 0.278
Stream size : 40.5 GiB (93%)
Language : English
Default : Yes
Forced : No
Color range : Limited
Color primaries : BT.2020
Transfer characteristics : PQ
Matrix coefficients : BT.2020 non-constant
Mastering display color pri : Display P3
Mastering display luminance : min: 0.0001 cd/m2, max: 1000 cd/m2
Maximum Content Light Level : 877 cd/m2
Maximum Frame-Average Light : 74 cd/m2

Audio #1
ID : 2
Format : AC-3
Format/Info : Audio Coding 3
Commercial name : Dolby Digital
Codec ID : A_AC3
Duration : 1 h 45 min
Bit rate mode : Constant
Bit rate : 192 kb/s
Channel(s) : 2 channels
Channel layout : L R
Sampling rate : 48.0 kHz
Frame rate : 31.250 FPS (1536 SPF)
Compression mode : Lossy
Stream size : 144 MiB (0%)
Title : DVO [NLS]
Language : Russian
Service kind : Complete Main
Default : Yes
Forced : Yes

Audio #2
ID : 3
Format : MLP FBA 16-ch
Format/Info : Meridian Lossless Packing FBA with 16-channel presentation
Commercial name : Dolby TrueHD with Dolby Atmos
Codec ID : A_TRUEHD
Duration : 1 h 45 min
Bit rate mode : Variable
Bit rate : 3 203 kb/s
Maximum bit rate : 5 115 kb/s
Channel(s) : 8 channels
Channel layout : L R C LFE Ls Rs Lb Rb
Sampling rate : 48.0 kHz
Frame rate : 1 200.000 FPS (40 SPF)
Compression mode : Lossless
Stream size : 2.35 GiB (5%)
Title : Original
Language : English
Default : No
Forced : No
Number of dynamic objects : 11
Bed channel count : 1 channel
Bed channel configuration : LFE

Audio #3
ID : 4
Format : AC-3
Format/Info : Audio Coding 3
Commercial name : Dolby Digital
Codec ID : A_AC3
Duration : 1 h 45 min
Bit rate mode : Constant
Bit rate : 640 kb/s
Channel(s) : 6 channels
Channel layout : L R C LFE Ls Rs
Sampling rate : 48.0 kHz
Frame rate : 31.250 FPS (1536 SPF)
Compression mode : Lossy
Stream size : 481 MiB (1%)
Language : English
Service kind : Complete Main
Default : No
Forced : No

Text
ID : 5
Format : UTF-8
Codec ID : S_TEXT/UTF8
Codec ID/Info : UTF-8 Plain Text
Duration : 1 h 41 min
Bit rate : 60 b/s
Frame rate : 0.200 FPS
Count of elements : 1214
Stream size : 45.1 KiB (0%)
Title : Full
Language : English
Default : No
Forced : No

Menu
00:00:00.000 : Глава 01
00:07:31.201 : Глава 02
00:12:17.403 : Глава 03
00:16:29.197 : Глава 04
00:25:19.518 : Глава 05
00:30:32.748 : Глава 06
00:36:48.456 : Глава 07
00:47:41.650 : Глава 08
00:54:35.147 : Глава 09
00:59:51.713 : Глава 10
01:06:05.170 : Глава 11
01:10:47.201 : Глава 12
01:15:12.800 : Глава 13
01:19:25.010 : Глава 14
01:26:47.702 : Глава 15
01:32:19.826 : Глава 16

Другие фильмы
У данной публикации пока нет комментариев.
Будь первым, оставь своё мнение в комментариях!
Информация
Посетители, находящиеся в группе Гости, не могут оставлять комментарии к данной публикации.
Самый популярный релиз недели
BDRip 1080p 9.87 Gb ...

Кино копилка
...
Какую тему вы используете?

Реклама
Последние комментарии
...

bere

Сегодня, 12:40

...

Chilly

Сегодня, 12:17

...

Desol

Вчера, 15:18

...

ArchieBlake

Вчера, 07:46

...

павел

Вчера, 05:13

Реклама