+5

Не беспокойся, дорогая / Don't Worry, Darling (2022) UHD BDRemux 2160p от селезень | 4K | HDR | iTunes

Информация о фильме
Название: Не беспокойся, дорогая
Оригинальное название: Don't Worry, Darling
Год выхода: 2022
Жанр: драма, триллер, фантастика
Режиссер: Оливия Уайлд
В ролях: Флоренс Пью, Гарри Стайлс, Крис Пайн, Оливия Уайлд, Кики Лэйн, Джемма Чан, Ник Кролл, Сидни Чендлер, Кейт Берлант, Азиф Али

О фильме: 1950-е. Джек и Элис живут в идеальном корпоративном городке, состоящем сплошь из дизайнерских домов. Пока мужчины работают над секретным проектом «Победа», их жёны занимаются хозяйством, балетом и шопингом - делают всё, чтобы угодить мужьям. Однако со временем Элис начинает подозревать, что компания, в которой трудится Джек, скрывает ужасные тайны.

Страна: США
Студия: New Line Productions Inc., Vertigo Entertainment
Продолжительность: 02:02:42
Перевод: Дублированный | iTunes

Качество: BDRemux 2160p
Видео: 3840x2160 at 23.976 fps, MPEG-H HEVC HDR ~ 52800 kbps avg
Аудио #01: 48 kHz, AC3, 5.1, 384 Kbps | Дублированный | iTunes | RUS |Не беспокойся, дорогая / Don't Worry, Darling (2022) UHD BDRemux 2160p от селезень | 4K | HDR | iTunes
Аудио #02: 48 kHz, TrueHD, 7.1, 3088 Kbps | Оригинал | ENG |
Аудио #03: 48 kHz, AC3, 5.1, 448 Kbps | Оригинал | ENG |
Субтитры: Русские (Full), английские

Не беспокойся, дорогая / Don't Worry, Darling (2022) UHD BDRemux 2160p от селезень | 4K | HDR | iTunes

Авторизуйтесь для получения доступа к скачиванию

Нет аккаунта? Регистрация открыта и займёт меньше минуты

Вход Регистрация

General
Unique ID : 243369163003664458389389327083446999265 (0xB7173223ADE0CEAA327268BA238018E1)
Complete name : D:\Videos\Don.t.Worry.Darling.2022.BDREMUX.2160p.HDR.seleZen.mkv
Format : Matroska
Format version : Version 4
File size : 48.7 GiB
Duration : 2 h 2 min
Overall bit rate mode : Variable
Overall bit rate : 56.8 Mb/s
Movie name : Don't Worry Darling 2022 from seleZen
Encoded date : UTC 2022-11-24 23:34:31
Writing application : mkvmerge v59.0.0 ('Shining Star') 64-bit
Writing library : libebml v1.4.2 + libmatroska v1.6.4

Video
ID : 1
ID in the original source m : 4113 (0x1011)
Format : HEVC
Format/Info : High Efficiency Video Coding
Format profile : Main [email protected]@High
HDR format : SMPTE ST 2086, HDR10 compatible
Codec ID : V_MPEGH/ISO/HEVC
Duration : 2 h 2 min
Bit rate : 52.8 Mb/s
Width : 3 840 pixels
Height : 2 160 pixels
Display aspect ratio : 16:9
Frame rate mode : Constant
Frame rate : 23.976 (24000/1001) FPS
Color space : YUV
Chroma subsampling : 4:2:0 (Type 2)
Bit depth : 10 bits
Bits/(Pixel*Frame) : 0.266
Stream size : 45.3 GiB (93%)
Writing library : ATEME Titan File 3.9.6 (4.9.6.2)
Language : English
Default : Yes
Forced : No
Color range : Limited
Color primaries : BT.2020
Transfer characteristics : PQ
Matrix coefficients : BT.2020 non-constant
Mastering display color pri : BT.2020
Mastering display luminance : min: 0.0001 cd/m2, max: 1000 cd/m2
Maximum Content Light Level : 277 cd/m2
Maximum Frame-Average Light : 101 cd/m2
Original source medium : Blu-ray

Audio #1
ID : 2
Format : AC-3
Format/Info : Audio Coding 3
Commercial name : Dolby Digital
Codec ID : A_AC3
Duration : 2 h 2 min
Bit rate mode : Constant
Bit rate : 384 kb/s
Channel(s) : 6 channels
Channel layout : L R C LFE Ls Rs
Sampling rate : 48.0 kHz
Frame rate : 31.250 FPS (1536 SPF)
Compression mode : Lossy
Stream size : 337 MiB (1%)
Title : Dub
Language : Russian
Service kind : Complete Main
Default : Yes
Forced : Yes

Audio #2
ID : 3
ID in the original source m : 4352 (0x1100)
Format : MLP FBA 16-ch
Format/Info : Meridian Lossless Packing FBA with 16-channel presentation
Commercial name : Dolby TrueHD with Dolby Atmos
Codec ID : A_TRUEHD
Duration : 2 h 2 min
Bit rate mode : Variable
Bit rate : 3 088 kb/s
Maximum bit rate : 4 866 kb/s
Channel(s) : 8 channels
Channel layout : L R C LFE Ls Rs Lb Rb
Sampling rate : 48.0 kHz
Frame rate : 1 200.000 FPS (40 SPF)
Compression mode : Lossless
Stream size : 2.65 GiB (5%)
Title : Original
Language : English
Default : No
Forced : No
Original source medium : Blu-ray
Number of dynamic objects : 11
Bed channel count : 1 channel
Bed channel configuration : LFE

Audio #3
ID : 4
ID in the original source m : 4352 (0x1100)
Format : AC-3
Format/Info : Audio Coding 3
Commercial name : Dolby Digital
Codec ID : A_AC3
Duration : 2 h 2 min
Bit rate mode : Constant
Bit rate : 448 kb/s
Channel(s) : 6 channels
Channel layout : L R C LFE Ls Rs
Sampling rate : 48.0 kHz
Frame rate : 31.250 FPS (1536 SPF)
Compression mode : Lossy
Stream size : 393 MiB (1%)
Language : English
Service kind : Complete Main
Default : No
Forced : No
Original source medium : Blu-ray

Text #1
ID : 5
Format : UTF-8
Codec ID : S_TEXT/UTF8
Codec ID/Info : UTF-8 Plain Text
Duration : 2 h 2 min
Bit rate : 74 b/s
Frame rate : 0.184 FPS
Count of elements : 1350
Stream size : 66.3 KiB (0%)
Title : Full
Language : Russian
Default : No
Forced : No

Text #2
ID : 6
Format : UTF-8
Codec ID : S_TEXT/UTF8
Codec ID/Info : UTF-8 Plain Text
Duration : 1 h 54 min
Bit rate : 57 b/s
Frame rate : 0.231 FPS
Count of elements : 1582
Stream size : 47.7 KiB (0%)
Title : Full
Language : English
Default : No
Forced : No

Text #3
ID : 7
Format : UTF-8
Codec ID : S_TEXT/UTF8
Codec ID/Info : UTF-8 Plain Text
Duration : 2 h 0 min
Bit rate : 71 b/s
Frame rate : 0.279 FPS
Count of elements : 2020
Stream size : 63.5 KiB (0%)
Title : SDH
Language : English
Default : No
Forced : No

Menu
00:00:00.000 : Chapter 01
00:09:55.678 : Chapter 02
00:18:01.747 : Chapter 03
00:28:00.220 : Chapter 04
00:35:26.165 : Chapter 05
00:45:20.801 : Chapter 06
00:55:13.810 : Chapter 07
01:04:21.023 : Chapter 08
01:12:40.856 : Chapter 09
01:21:08.405 : Chapter 10
01:30:43.771 : Chapter 11
01:39:06.398 : Chapter 12
01:48:34.591 : Chapter 13
01:55:43.519 : Chapter 14

Другие фильмы
У данной публикации пока нет комментариев.
Будь первым, оставь своё мнение в комментариях!
Информация
Посетители, находящиеся в группе Гости, не могут оставлять комментарии к данной публикации.
Самый популярный релиз недели
BDRip 1080p 9.87 Gb ...

Кино копилка
...
Какую тему вы используете?

Реклама
Последние комментарии
...

bere

Сегодня, 12:40

...

Chilly

Сегодня, 12:17

...

Desol

Вчера, 15:18

...

ArchieBlake

Вчера, 07:46

...

павел

Вчера, 05:13

Реклама