+12

Грейхаунд / Greyhound (2020) WEB-DLRip 720p от DoMiNo & селезень | D

Информация о фильме
Название: Грейхаунд
Оригинальное название: Greyhound
Год выхода: 2020
Жанр: Военный, боевик, история, биография
Режиссер: Аарон Шнайдер
В ролях: Том Хэнкс, Стивен Грэм, Элизабет Шу, Майкл Бенц, Роб Морган, Дэвид Мальдонадо, Джими Стэнтон, Мэтт Хелм, Том Бриттни, Мануэль Рульфо

О фильме:
В 1942 году офицера морского флота Эрнста Краузе назначают капитаном эсминца "Грейхаунд". Приняв командование, ему необходимо провести конвой из кораблей через воды Северной Атлантики, переполненные немецкими подводными лодками. Но чтобы уйти от преследования врага и сохранить экипаж, ему нужно проявить умение и небывалые тактические навыки.

Страна: Китай, Канада, США
Студия: Bron Studios, Columbia Pictures Corporation, Creative Artists Agency (CAA), Creative Wealth Media Finance, Playtone
Продолжительность: 01:31:42
Перевод: Дублированный
Субтитры: Русские (Forced, Full), украинские (Full), английские (Full, SDH)

Файл
Формат: Matroska
Качество: WEB-DLRip 720p
Видео: 1280x534 at 23.976 fps, [email protected], ~3500 kbps
Аудио 1: AC3, 6 ch, ~448 kbps - | Русский | Грейхаунд / Greyhound (2020) WEB-DLRip 720p от DoMiNo & селезень | D
Аудио 2: AC3, 6 ch, ~448 kbps - | Английский |
Формат субтитров: softsub (SRT)

Грейхаунд / Greyhound (2020) WEB-DLRip 720p от DoMiNo & селезень | D

Авторизуйтесь для получения доступа к скачиванию

Нет аккаунта? Регистрация открыта и займёт меньше минуты

Вход Регистрация

x264 [info]: frame I:885 Avg QP:14.05 size: 86767
x264 [info]: frame P:31362 Avg QP:16.22 size: 35046
x264 [info]: frame B:99679 Avg QP:18.34 size: 12279
x264 [info]: consecutive B-frames: 2,1% 4,3% 11,2% 27,0% 19,9% 31,4% 2,0% 0,9% 0,4% 0,3% 0,5%

General
Unique ID : 171375367173262363168435364814276466850 (0×80EDB1F47E7F3143C46919F9C32718A2)
Complete name : L:Greyhound.2020.WEB-DLRip.720p.x264.seleZen.mkv
Format : Matroska
Format version : Version 4
File size : 2.81 GiB
Duration : 1 h 31 min
Overall bit rate : 4 388 kb/s
Movie name : Greyhound.2020.WEB-DLRip.720p.x264.seleZen
Encoded date : UTC 06.10.2022 15:25:01
Writing application : mkvmerge v70.0.0 ('Caught A Lite Sneeze') 64-bit
Writing library : libebml v1.4.2 + libmatroska v1.6.4
Cover : Yes
Attachments : cover.jpg / small_cover.jpg

Video
ID : 1
Format : AVC
Format/Info : Advanced Video Codec
Format profile : [email protected]
Format settings : CABAC / 12 Ref Frames
Format settings, CABAC : Yes
Format settings, Reference : 12 frames
Codec ID : V_MPEG4/ISO/AVC
Duration : 1 h 31 min
Bit rate : 3 500 kb/s
Width : 1 280 pixels
Height : 534 pixels
Display aspect ratio : 2.40:1
Frame rate mode : Constant
Frame rate : 23.976 (24000/1001) FPS
Color space : YUV
Chroma subsampling : 4:2:0
Bit depth : 8 bits
Scan type : Progressive
Bits/(Pixel*Frame) : 0.214
Stream size : 2.24 GiB (80%)
Title : -=DoMiNo=-
Writing library : x264 core 164 r3099+55M 141af3f t_mod_New | by -=DoMiNo=- | X86_64
Encoding settings : cabac=1 / ref=12 / deblock=1:-3:-2 / analyse=0×3:0×133 / me=umh / subme=10 / psy=1 / fade_compensate=0.00 / psy_rd=1.04:0.08 / mixed_ref=1 / me_range=32 / chroma_me=1 / trellis=2 / 8×8dct=1 / cqm=0 / deadzone=21,11 / fast_pskip=0 / chroma_qp_offset=-3 / threads=17 / lookahead_threads=4 / sliced_threads=0 / nr=0 / decimate=0 / interlaced=0 / bluray_compat=0 / constrained_intra=0 / fgo=0 / bframes=10 / b_pyramid=2 / b_adapt=2 / b_bias=0 / direct=3 / weightb=1 / open_gop=0 / weightp=2 / keyint=250 / keyint_min=23 / scenecut=40 / intra_refresh=0 / rc_lookahead=60 / rc=2pass / mbtree=0 / bitrate=3500 / ratetol=1.0 / qcomp=0.70 / qpmin=0:0:0 / qpmax=69:69:69 / qpstep=4 / cplxblur=20.0 / qblur=0.5 / vbv_maxrate=50000 / vbv_bufsize=62500 / nal_hrd=none / filler=0 / ip_ratio=1.30 / pb_ratio=1.30 / aq=3:0.80 / aq-sensitivity=10.00 / aq-factor=1.00:1.00:1.00 / aq2=0 / aq3=0
Language : English
Default : Yes
Forced : No
Color range : Limited
Color primaries : BT.709
Transfer characteristics : BT.709
Matrix coefficients : BT.709

Audio #1
ID : 2
Format : AC-3
Format/Info : Audio Coding 3
Commercial name : Dolby Digital
Codec ID : A_AC3
Duration : 1 h 31 min
Bit rate mode : Constant
Bit rate : 448 kb/s
Channel (s) : 6 channels
Channel layout : L R C LFE Ls Rs
Sampling rate : 48.0 kHz
Frame rate : 31.250 FPS (1536 SPF)
Compression mode : Lossy
Stream size : 294 MiB (10%)
Title : DUB
Language : Russian
Service kind : Complete Main
Default : Yes
Forced : Yes

Audio #2
ID : 3
Format : AC-3
Format/Info : Audio Coding 3
Commercial name : Dolby Digital
Codec ID : A_AC3
Duration : 1 h 31 min
Bit rate mode : Constant
Bit rate : 448 kb/s
Channel (s) : 6 channels
Channel layout : L R C LFE Ls Rs
Sampling rate : 48.0 kHz
Frame rate : 31.250 FPS (1536 SPF)
Compression mode : Lossy
Stream size : 294 MiB (10%)
Title : Original
Language : English
Service kind : Complete Main
Default : No
Forced : No

Text #1
ID : 4
Format : UTF-8
Codec ID : S_TEXT/UTF8
Codec ID/Info : UTF-8 Plain Text
Duration : 1 h 30 min
Bit rate : 6 b/s
Count of elements : 77
Stream size : 4.39 KiB (0%)
Title : Forced
Language : Russian
Default : Yes
Forced : No

Text #2
ID : 5
Format : UTF-8
Codec ID : S_TEXT/UTF8
Codec ID/Info : UTF-8 Plain Text
Duration : 1 h 30 min
Bit rate : 94 b/s
Count of elements : 1095
Stream size : 62.9 KiB (0%)
Title : Full
Language : Russian
Default : No
Forced : No

Text #3
ID : 6
Format : UTF-8
Codec ID : S_TEXT/UTF8
Codec ID/Info : UTF-8 Plain Text
Duration : 1 h 20 min
Bit rate : 66 b/s
Count of elements : 1033
Stream size : 38.8 KiB (0%)
Title : Full
Language : English
Default : No
Forced : No

Text #4
ID : 7
Format : UTF-8
Codec ID : S_TEXT/UTF8
Codec ID/Info : UTF-8 Plain Text
Duration : 1 h 20 min
Bit rate : 72 b/s
Count of elements : 1105
Stream size : 42.3 KiB (0%)
Title : SDH
Language : English
Default : No
Forced : No

Text #5
ID : 8
Format : UTF-8
Codec ID : S_TEXT/UTF8
Codec ID/Info : UTF-8 Plain Text
Duration : 1 h 30 min
Bit rate : 89 b/s
Count of elements : 1095
Stream size : 59.6 KiB (0%)
Title : Full
Language : Ukrainian
Default : No
Forced : No

Menu
00:00:00.000 : en:Глава 01
00:09:10.000 : en:Глава 02
00:18:20.000 : en:Глава 03
00:27:30.000 : en:Глава 04
00:36:40.000 : en:Глава 05
00:45:50.000 : en:Глава 06
00:55:00.000 : en:Глава 07
01:04:10.000 : en:Глава 08
01:13:20.000 : en:Глава 09
01:22:30.000 : en:Глава 10
01:31:40.000 : en:Глава 11

Другие фильмы
У данной публикации пока нет комментариев.
Будь первым, оставь своё мнение в комментариях!
Информация
Посетители, находящиеся в группе Гости, не могут оставлять комментарии к данной публикации.
Самый популярный релиз недели
BDRip 1080p 9.87 Gb ...

Кино копилка
...
Какую тему вы используете?

Реклама
Последние комментарии
...

Robot

Сегодня, 18:53

...

bere

Сегодня, 12:40

...

Chilly

Сегодня, 12:17

...

Desol

Вчера, 15:18

...

ArchieBlake

Вчера, 07:46

Реклама