+9

Убойный монтаж / Coupé / Coupez! (2022) BDRip-AVC от DoMiNo & селезень | D

Информация о фильме
Название: Убойный монтаж
Оригинальное название: Coupé / Coupez!
Год выхода: 2022
Жанр: Ужасы, комедия
Режиссер: Мишель Хазанавичус
В ролях: Ромен Дюрис, Беренис Бежо, Грегори Гадебуа, Финнегэн Олдфилд, Матильда Анна Ингрид Лутс, Себастьян Шассейн, Рафаэль Кенар, Лье Салем, Жан-Паскаль Зади, Симона Хазанавичус

Описание:
Начинающий режиссёр и не особо профессиональная съемочная группа подписываются на экспериментальный хоррор. Но во время съёмок все идет наперекосяк — ведущая актриса неубедительно изображает ужас, ключевой актер напился, а на самих киношников внезапно нападают настоящие живые мертвецы.

Страна: Франция, Великобритания, Япония
Студия: Alcatraz Films, Blue Light, Canal+ [fr], Ciné, France 2 Cinéma, France Télévision, GAGA, Getaway Films, La Classe Américaine, Pan Européenne Distribution, Région Ile-de-France, SK Global, SofiTVciné 9
Продолжительность: 01:51:53
Перевод: Профессиональный (полное дублирование) | Vox Records | KION
Субтитры: Французские

Файл
Формат: Matroska
Качество: BDRip-AVC
Видео: 720×302 at 24.000 fps, [email protected], ~835 kbps
Аудио: AAC, 2 ch, ~96 kbps — | Русский | Убойный монтаж / Coupé / Coupez! (2022) BDRip-AVC от DoMiNo & селезень | D
Формат субтитров: softsub (SRT)

Убойный монтаж / Coupé / Coupez! (2022) BDRip-AVC от DoMiNo & селезень | D

Авторизуйтесь для получения доступа к скачиванию

Нет аккаунта? Регистрация открыта и займёт меньше минуты

Вход Регистрация

General
Unique ID : 220770563682568389805824660296848592022 (0xA616DD2B6790203C9C896A42649B4C96)
Complete name : D:Убойный монтаж_2022Coupez.2022.BDRip.x264.seleZen.mkv
Format : Matroska
Format version : Version 4
File size : 745 MiB
Duration : 1 h 51 min
Overall bit rate : 931 kb/s
Movie name : Coupez.2022.BDRip.x264.seleZen
Encoded date : UTC 05.10.2022 14:21:53
Writing application : mkvmerge v70.0.0 ('Caught A Lite Sneeze') 64-bit
Writing library : libebml v1.4.2 + libmatroska v1.6.4
Cover : Yes
Attachments : cover.jpg / small_cover.jpg

Video
ID : 1
Format : AVC
Format/Info : Advanced Video Codec
Format profile : [email protected]
Format settings : CABAC / 12 Ref Frames
Format settings, CABAC : Yes
Format settings, Reference : 12 frames
Codec ID : V_MPEG4/ISO/AVC
Duration : 1 h 51 min
Bit rate : 835 kb/s
Width : 720 pixels
Height : 302 pixels
Display aspect ratio : 2.40:1
Frame rate mode : Constant
Frame rate : 24.000 FPS
Color space : YUV
Chroma subsampling : 4:2:0
Bit depth : 8 bits
Scan type : Progressive
Bits/(Pixel*Frame) : 0.160
Stream size : 668 MiB (90%)
Title : -=DoMiNo=-
Writing library : x264 core 164 r3099+55M 141af3f t_mod_New | by -=DoMiNo=- | X86_64
Encoding settings : cabac=1 / ref=12 / deblock=1:-2:-1 / analyse=0×3:0×133 / me=umh / subme=10 / psy=1 / fade_compensate=0.00 / psy_rd=1.01:0.01 / mixed_ref=1 / me_range=32 / chroma_me=1 / trellis=2 / 8×8dct=1 / cqm=0 / deadzone=21,11 / fast_pskip=0 / chroma_qp_offset=-3 / threads=17 / lookahead_threads=2 / sliced_threads=0 / nr=0 / decimate=0 / interlaced=0 / bluray_compat=0 / constrained_intra=0 / fgo=0 / bframes=12 / b_pyramid=2 / b_adapt=2 / b_bias=0 / direct=3 / weightb=1 / open_gop=0 / weightp=2 / keyint=250 / keyint_min=24 / scenecut=40 / intra_refresh=0 / rc_lookahead=60 / rc=2pass / mbtree=0 / bitrate=835 / ratetol=1.0 / qcomp=0.70 / qpmin=0:0:0 / qpmax=69:69:69 / qpstep=4 / cplxblur=20.0 / qblur=0.5 / vbv_maxrate=50000 / vbv_bufsize=62500 / nal_hrd=none / filler=0 / ip_ratio=1.40 / pb_ratio=1.30 / aq=3:0.80 / aq-sensitivity=10.00 / aq-factor=1.00:1.00:1.00 / aq2=0 / aq3=0
Language : French
Default : Yes
Forced : No
Color range : Limited
Color primaries : BT.709
Transfer characteristics : BT.709
Matrix coefficients : BT.709

Audio
ID : 2
Format : AAC LC SBR
Format/Info : Advanced Audio Codec Low Complexity with Spectral Band Replication
Commercial name : HE-AAC
Format settings : Explicit
Codec ID : A_AAC-2
Duration : 1 h 51 min
Bit rate : 96.0 kb/s
Channel (s) : 2 channels
Channel layout : L R
Sampling rate : 48.0 kHz
Frame rate : 23.438 FPS (2048 SPF)
Compression mode : Lossy
Stream size : 75.8 MiB (10%)
Title : DUB
Language : Russian
Default : Yes
Forced : Yes

Text
ID : 3
Format : UTF-8
Codec ID : S_TEXT/UTF8
Codec ID/Info : UTF-8 Plain Text
Duration : 1 h 51 min
Bit rate : 61 b/s
Count of elements : 1794
Stream size : 50.2 KiB (0%)
Language : French
Default : No
Forced : No

Menu
00:00:00.000 : en:Chapter 1
00:09:50.250 : en:Chapter 2
00:20:03.250 : en:Chapter 3
00:30:13.250 : en:Chapter 4
00:40:44.916 : en:Chapter 5
00:51:18.250 : en:Chapter 6
00:59:15.541 : en:Chapter 7
01:06:08.416 : en:Chapter 8
01:17:10.541 : en:Chapter 9
01:27:21.958 : en:Chapter 10
01:38:42.875 : en:Chapter 11
01:47:47.333 : en:Chapter 12
01:51:52.958 : en:Chapter 13

Другие фильмы
У данной публикации пока нет комментариев.
Будь первым, оставь своё мнение в комментариях!
Информация
Посетители, находящиеся в группе Гости, не могут оставлять комментарии к данной публикации.
Самый популярный релиз недели
BDRip 1080p 9.87 Gb ...

Кино копилка
...
Какую тему вы используете?

Реклама
Последние комментарии
...

bere

Сегодня, 12:40

...

Chilly

Сегодня, 12:17

...

Desol

Вчера, 15:18

...

ArchieBlake

Вчера, 07:46

...

павел

Вчера, 05:13

Реклама