+10

Тела, тела, тела / Bodies Bodies Bodies (2022) WEB-DL 720p от DoMiNo & селезень | P

Информация о фильме
Название: Тела, тела, тела
Оригинальное название: Bodies Bodies Bodies
Год выпуска: 2022
Выпущено: США
Жанр: Комедия, ужасы, триллер
Режиссер: Халина Рейн / Halina Reijn
В ролях: Амандла Стенберг, Мария Бакалова, Рэйчел Сеннотт, Чейз Суи Уондерс, Пит Дэвидсон, Миха’ла Херролд, Ли Пейс, Коннер О’Мэлли

О фильме:
Компания модной молодежи отправляется потусить в доме богатенького приятеля. Веселая вечеринка оборачивается кошмаром, когда молодые люди обнаруживают, что кто-то начал сокращать их количество. Нарастают напряжение и каскад взаимных подозрений, всплывают старые обиды.

Продолжительность: 01:33:50
Перевод: Профессиональный (многоголосый, закадровый) | Jaskier - Присутствует ненормативная лексика!
Субтитры: Русские (stasslender 18+), Английские

Файл
Формат: Matroska
Качество: WEB-DL 720p
Видео: 1482×620 at 23.976 fps, [email protected], ~2834 kbps
Аудио 1: AC3, 2 ch, ~192 kbps — | Русский | Тела, тела, тела / Bodies Bodies Bodies (2022) WEB-DL 720p от DoMiNo & селезень | P
Аудио 2: E-AC3+Atmos, 6 ch, ~768 kbps — | Английский |
Формат субтитров: softsub (SRT)

Тела, тела, тела / Bodies Bodies Bodies (2022) WEB-DL 720p от DoMiNo & селезень | P

Авторизуйтесь для получения доступа к скачиванию

Нет аккаунта? Регистрация открыта и займёт меньше минуты

Вход Регистрация

General
Unique ID : 9890901881468719311545349727119318058 (0×770EB1CFC97306D5EFEE17895299C2A)
Complete name : D:Bodies.Bodies.Bodies.2022.WEB-DL.720p.x264.seleZen.mkv
Format : Matroska
Format version : Version 4
File size : 2.49 GiB
Duration : 1 h 33 min
Overall bit rate : 3 797 kb/s
Movie name : Bodies.Bodies.Bodies.2022.WEB-DL.720p.x264.seleZen
Encoded date : UTC 01.10.2022 15:42:30
Writing application : mkvmerge v70.0.0 ('Caught A Lite Sneeze') 64-bit
Writing library : libebml v1.4.2 + libmatroska v1.6.4
Cover : Yes
Attachments : cover.jpg / small_cover.jpg / cover.jpg / small_cover.jpg

Video
ID : 1
Format : AVC
Format/Info : Advanced Video Codec
Format profile : [email protected]
Format settings : CABAC / 5 Ref Frames
Format settings, CABAC : Yes
Format settings, Reference : 5 frames
Codec ID : V_MPEG4/ISO/AVC
Duration : 1 h 33 min
Bit rate : 2 834 kb/s
Width : 1 482 pixels
Height : 620 pixels
Display aspect ratio : 2.40:1
Frame rate mode : Constant
Frame rate : 23.976 (24000/1001) FPS
Color space : YUV
Chroma subsampling : 4:2:0
Bit depth : 8 bits
Scan type : Progressive
Bits/(Pixel*Frame) : 0.129
Stream size : 1.86 GiB (75%)
Language : English
Default : Yes
Forced : No
Color range : Limited
Color primaries : BT.709
Transfer characteristics : BT.709
Matrix coefficients : BT.709

Audio #1
ID : 2
Format : AC-3
Format/Info : Audio Coding 3
Commercial name : Dolby Digital
Codec ID : A_AC3
Duration : 1 h 33 min
Bit rate mode : Constant
Bit rate : 192 kb/s
Channel (s) : 2 channels
Channel layout : L R
Sampling rate : 48.0 kHz
Frame rate : 31.250 FPS (1536 SPF)
Compression mode : Lossy
Stream size : 129 MiB (5%)
Title : MVO_[Jaskier]
Language : Russian
Service kind : Complete Main
Default : Yes
Forced : Yes

Audio #2
ID : 3
Format : E-AC-3 JOC
Format/Info : Enhanced AC-3 with Joint Object Coding
Commercial name : Dolby Digital Plus with Dolby Atmos
Codec ID : A_EAC3
Duration : 1 h 33 min
Bit rate mode : Constant
Bit rate : 768 kb/s
Channel (s) : 6 channels
Channel layout : L R C LFE Ls Rs
Sampling rate : 48.0 kHz
Frame rate : 31.250 FPS (1536 SPF)
Compression mode : Lossy
Stream size : 516 MiB (20%)
Title : Original
Language : English
Service kind : Complete Main
Default : No
Forced : No
Complexity index : 16
Number of dynamic objects : 15
Bed channel count : 1 channel
Bed channel configuration : LFE

Text #1
ID : 4
Format : UTF-8
Codec ID : S_TEXT/UTF8
Codec ID/Info : UTF-8 Plain Text
Duration : 1 h 33 min
Bit rate : 83 b/s
Count of elements : 1496
Stream size : 57.2 KiB (0%)
Title : Full_[stasslender 18+]
Language : Russian
Default : No
Forced : No

Text #2
ID : 5
Format : UTF-8
Codec ID : S_TEXT/UTF8
Codec ID/Info : UTF-8 Plain Text
Duration : 1 h 27 min
Bit rate : 69 b/s
Count of elements : 1586
Stream size : 44.4 KiB (0%)
Title : Full
Language : English
Default : No
Forced : No

Text #3
ID : 6
Format : UTF-8
Codec ID : S_TEXT/UTF8
Codec ID/Info : UTF-8 Plain Text
Duration : 1 h 33 min
Bit rate : 70 b/s
Count of elements : 1772
Stream size : 48.5 KiB (0%)
Title : SDH
Language : English
Default : No
Forced : No

Menu
00:00:00.000 : en:Chapter 01
00:10:29.379 : en:Chapter 02
00:21:02.804 : en:Chapter 03
00:32:59.145 : en:Chapter 04
00:40:44.819 : en:Chapter 05
00:51:13.156 : en:Chapter 06
01:03:31.644 : en:Chapter 07
01:16:09.069 : en:Chapter 08
01:28:41.780 : en:Chapter 09

Другие фильмы
У данной публикации пока нет комментариев.
Будь первым, оставь своё мнение в комментариях!
Информация
Посетители, находящиеся в группе Гости, не могут оставлять комментарии к данной публикации.
Самый популярный релиз недели
BDRip 1080p 9.87 Gb ...

Кино копилка
...
Какую тему вы используете?

Реклама
Последние комментарии
...

Robot

Сегодня, 18:53

...

bere

Сегодня, 12:40

...

Chilly

Сегодня, 12:17

...

Desol

Вчера, 15:18

...

ArchieBlake

Вчера, 07:46

Реклама