+12

Тела, тела, тела / Bodies Bodies Bodies (2022) BDRip-AVC от DoMiNo & селезень | P

Информация о фильме
Название: Тела, тела, тела
Оригинальное название: Bodies Bodies Bodies
Год выпуска: 2022
Выпущено: США
Жанр: Комедия, ужасы, триллер
Режиссер: Халина Рейн / Halina Reijn
В ролях: Амандла Стенберг, Мария Бакалова, Рэйчел Сеннотт, Чейз Суи Уондерс, Пит Дэвидсон, Миха’ла Херролд, Ли Пейс, Коннер О’Мэлли

О фильме:
Компания модной молодежи отправляется потусить в доме богатенького приятеля. Веселая вечеринка оборачивается кошмаром, когда молодые люди обнаруживают, что кто-то начал сокращать их количество. Нарастают напряжение и каскад взаимных подозрений, всплывают старые обиды.

Продолжительность: 01:33:53
Перевод: Профессиональный (многоголосый, закадровый) | Jaskier
Субтитры: Русские (stasslender 18+), английские, французские, испанские
Внимание: присутствует ненормативная лексика!

Файл
Формат: Matroska
Качество: BDRip-AVC [исх.Bodies.Bodies.Bodies.2022.BluRay.REMUX.1080p.AVC.TrueHD7.1.Atmos-HDS]
Видео: 1024x428 at 23.976 fps, [email protected], ~2224 kbps
Аудио 1: AC3, 2 ch, ~192 kbps - | Русский | Тела, тела, тела / Bodies Bodies Bodies (2022) BDRip-AVC от DoMiNo & селезень | P
Аудио 2: AC3, 6 ch, ~448 kbps - | Английский |
Формат субтитров: softsub (SRT)

Тела, тела, тела / Bodies Bodies Bodies (2022) BDRip-AVC от DoMiNo & селезень | P

Авторизуйтесь для получения доступа к скачиванию

Нет аккаунта? Регистрация открыта и займёт меньше минуты

Вход Регистрация

x264 [info]: frame I:914 Avg QP:13.99 size: 55157
x264 [info]: frame P:27548 Avg QP:15.53 size: 24533
x264 [info]: frame B:106587 Avg QP:18.30 size: 7881

General
Unique ID : 312837230460394675641434843511888070679 (0xEB5A424CECD5F4AAF0CB9F410E3CC817)
Complete name : D:Bodies.Bodies.Bodies.2022.BDRip.x264.seleZen.mkv
Format : Matroska
Format version : Version 4
File size : 1.88 GiB
Duration : 1 h 33 min
Overall bit rate : 2 867 kb/s
Movie name : Bodies.Bodies.Bodies.2022.BDRip.x264.seleZen
Encoded date : UTC 22.10.2022 20:21:39
Writing application : mkvmerge v71.0.0 ('Altitude') 64-bit
Writing library : libebml v1.4.4 + libmatroska v1.7.1
Cover : Yes
Attachments : cover.jpg / small_cover.jpg

Video
ID : 1
Format : AVC
Format/Info : Advanced Video Codec
Format profile : [email protected]
Format settings : CABAC / 14 Ref Frames
Format settings, CABAC : Yes
Format settings, Reference : 14 frames
Codec ID : V_MPEG4/ISO/AVC
Duration : 1 h 33 min
Bit rate : 2 224 kb/s
Width : 1 024 pixels
Height : 428 pixels
Display aspect ratio : 2.40:1
Frame rate mode : Constant
Frame rate : 23.976 (24000/1001) FPS
Color space : YUV
Chroma subsampling : 4:2:0
Bit depth : 8 bits
Scan type : Progressive
Bits/(Pixel*Frame) : 0.212
Stream size : 1.46 GiB (78%)
Title : -=DoMiNo=-
Writing library : x264 core 164 r3099+55M 141af3f t_mod_New | by -=DoMiNo=- | X86_64
Encoding settings : cabac=1 / ref=14 / deblock=1:-3:-2 / analyse=0×3:0×133 / me=umh / subme=10 / psy=1 / fade_compensate=0.00 / psy_rd=1.03:0.02 / mixed_ref=1 / me_range=32 / chroma_me=1 / trellis=2 / 8×8dct=1 / cqm=0 / deadzone=21,11 / fast_pskip=1 / chroma_qp_offset=-3 / threads=17 / lookahead_threads=3 / sliced_threads=0 / nr=0 / decimate=1 / interlaced=0 / bluray_compat=0 / constrained_intra=0 / fgo=0 / bframes=12 / b_pyramid=2 / b_adapt=2 / b_bias=0 / direct=1 / weightb=1 / open_gop=0 / weightp=2 / keyint=250 / keyint_min=23 / scenecut=40 / intra_refresh=0 / rc_lookahead=60 / rc=crf / mbtree=0 / crf=17.8000 / qcomp=0.65 / qpmin=0:0:0 / qpmax=69:69:69 / qpstep=4 / vbv_maxrate=50000 / vbv_bufsize=62500 / crf_max=0.0 / nal_hrd=none / filler=0 / ip_ratio=1.40 / pb_ratio=1.30 / aq=3:0.80 / aq-sensitivity=10.00 / aq-factor=1.00:1.00:1.00 / aq2=0 / aq3=0
Language : English
Default : Yes
Forced : No

Audio #1
ID : 2
Format : AC-3
Format/Info : Audio Coding 3
Commercial name : Dolby Digital
Codec ID : A_AC3
Duration : 1 h 33 min
Bit rate mode : Constant
Bit rate : 192 kb/s
Channel (s) : 2 channels
Channel layout : L R
Sampling rate : 48.0 kHz
Frame rate : 31.250 FPS (1536 SPF)
Compression mode : Lossy
Stream size : 129 MiB (7%)
Title : MVO_[Jaskier] 18+
Language : Russian
Service kind : Complete Main
Default : Yes
Forced : No

Audio #2
ID : 3
Format : AC-3
Format/Info : Audio Coding 3
Commercial name : Dolby Digital
Codec ID : A_AC3
Duration : 1 h 33 min
Bit rate mode : Constant
Bit rate : 448 kb/s
Channel (s) : 6 channels
Channel layout : L R C LFE Ls Rs
Sampling rate : 48.0 kHz
Frame rate : 31.250 FPS (1536 SPF)
Compression mode : Lossy
Stream size : 301 MiB (16%)
Title : Original
Language : English
Service kind : Complete Main
Default : No
Forced : No

Text #1
ID : 4
Format : UTF-8
Codec ID : S_TEXT/UTF8
Codec ID/Info : UTF-8 Plain Text
Duration : 1 h 28 min
Bit rate : 88 b/s
Count of elements : 1495
Stream size : 57.2 KiB (0%)
Title : Full
Language : Russian
Default : No
Forced : No

Text #2
ID : 5
Format : UTF-8
Codec ID : S_TEXT/UTF8
Codec ID/Info : UTF-8 Plain Text
Duration : 1 h 27 min
Bit rate : 63 b/s
Count of elements : 1559
Stream size : 40.6 KiB (0%)
Title : Full
Language : English
Default : No
Forced : No

Text #3
ID : 6
Format : UTF-8
Codec ID : S_TEXT/UTF8
Codec ID/Info : UTF-8 Plain Text
Duration : 1 h 32 min
Bit rate : 46 b/s
Count of elements : 1082
Stream size : 31.4 KiB (0%)
Title : Full
Language : French
Default : No
Forced : No

Text #4
ID : 7
Format : UTF-8
Codec ID : S_TEXT/UTF8
Codec ID/Info : UTF-8 Plain Text
Duration : 1 h 32 min
Bit rate : 49 b/s
Count of elements : 1168
Stream size : 33.7 KiB (0%)
Title : Full
Language : Spanish
Default : No
Forced : No

Menu
00:00:00.000 : en:Chapter 01
00:04:10.375 : en:Chapter 02
00:10:30.463 : en:Chapter 03
00:16:24.858 : en:Chapter 04
00:21:26.618 : en:Chapter 05
00:29:11.750 : en:Chapter 06
00:33:00.144 : en:Chapter 07
00:36:57.089 : en:Chapter 08
00:40:45.818 : en:Chapter 09
00:44:40.302 : en:Chapter 10
00:51:14.154 : en:Chapter 11
00:58:23.124 : en:Chapter 12
01:04:50.136 : en:Chapter 13
01:08:45.121 : en:Chapter 14
01:18:24.449 : en:Chapter 15
01:23:01.935 : en:Chapter 16

Другие фильмы
У данной публикации пока нет комментариев.
Будь первым, оставь своё мнение в комментариях!
Информация
Посетители, находящиеся в группе Гости, не могут оставлять комментарии к данной публикации.
Самый популярный релиз недели
BDRip 1080p 9.87 Gb ...

Кино копилка
...
Какую тему вы используете?

Реклама
Последние комментарии
...

bere

Сегодня, 12:40

...

Chilly

Сегодня, 12:17

...

Desol

Вчера, 15:18

...

ArchieBlake

Вчера, 07:46

...

павел

Вчера, 05:13

Реклама