+4

Под наблюдением / Прослушка / Wire Room (2022) BDRip 1080p от селезень | D

Информация о фильме
Название: Прослушка
Оригинальное название: Wire Room
Год выхода: 2022
Жанр: боевик, триллер
Режиссер: Мэтт Эскандари
В ролях: Кевин Диллон, Брюс Уиллис, Оливер Тревена, Тексас Бэттл, Шелби Кобб, Марти Дункан, Джон Д. Хикман, Brad Mintun, Брэдфорд Норрис, Адам Уэль Поттер

О фильме: Шейн Мюллер - агент национальной безопасности, который управляет высокотехнологичным командным центром, отслеживающим самых опасных преступников. Новобранец Джастин Роза должен следить за членом картеля Эдди Флинном, занимающимся контрабандой оружия, и любой ценой сохранить ему жизнь. Когда отряд спецназа прибывает в дом Флинна, Роза нарушает протокол и напрямую связывается с гангстером, чтобы спасти его жизнь. Когда боевики врываются в комнату и начинается хаос, Мюллер и Роза в последний раз отчаянно сопротивляются коррумпированным агентам и чиновникам, которые стремятся уничтожить улики и убить их обоих.

Страна: США
Студия: Emmett/Furla Films, Five Star Films, Grindstone Entertainment Group, Herrick Entertainment, Three Point Capital
Продолжительность: 01:36:36
Перевод: Дублированный | Pride Production

Качество: BDRip 1080p
Видео: MPEG-4 AVC, 1920x960, 13.4 Mbit/s, 23.976 fps
Аудио #01: 48 kHz, AC3, 5.1, 448 Kbps | Дублированный | Pride Production | RUS |Под наблюдением / Прослушка / Wire Room (2022) BDRip 1080p от селезень | D
Аудио #02: 48 kHz, E-AC3, 5.1, 448 Kbps | Дублированный | Pride Production | RUS |
Аудио #03: 48 kHz, AC3, 5.1, 640 Kbps | Оригинал | ENG |
Субтитры: Английские

Под наблюдением / Прослушка / Wire Room (2022) BDRip 1080p от селезень | D

Авторизуйтесь для получения доступа к скачиванию

Нет аккаунта? Регистрация открыта и займёт меньше минуты

Вход Регистрация

General
Unique ID : 18654371604738005300417177402228071573 (0xE08B38786EEFD3444E67DECD86FDC95)
Complete name : E:\Video1\Wire.Room.2022.BDRip.1080p.seleZen.mkv
Format : Matroska
Format version : Version 4
File size : 10.1 GiB
Duration : 1 h 36 min
Overall bit rate : 14.9 Mb/s
Movie name : Wire Room 2022 from seleZen
Encoded date : UTC 2022-09-26 09:44:48
Writing application : mkvmerge v59.0.0 ('Shining Star') 64-bit
Writing library : libebml v1.4.2 + libmatroska v1.6.4

Video
ID : 1
Format : AVC
Format/Info : Advanced Video Codec
Format profile : [email protected]
Format settings : CABAC / 4 Ref Frames
Format settings, CABAC : Yes
Format settings, Reference : 4 frames
Codec ID : V_MPEG4/ISO/AVC
Duration : 1 h 36 min
Bit rate : 13.4 Mb/s
Width : 1 920 pixels
Height : 960 pixels
Display aspect ratio : 2.000
Frame rate mode : Constant
Frame rate : 23.976 (24000/1001) FPS
Color space : YUV
Chroma subsampling : 4:2:0
Bit depth : 8 bits
Scan type : Progressive
Bits/(Pixel*Frame) : 0.304
Stream size : 9.05 GiB (90%)
Title : MTeam
Writing library : x264 core 157 r2938 2b00a84 [email protected] Mod
Encoding settings : cabac=1 / ref=4 / deblock=1:-3:-3 / analyse=0x3:0x133 / me=umh / subme=10 / psy=1 / psy_rd=1.05:0.00 / mixed_ref=1 / me_range=32 / chroma_me=1 / trellis=2 / 8x8dct=1 / cqm=0 / deadzone=21,11 / fast_pskip=0 / chroma_qp_offset=-2 / threads=12 / lookahead_threads=2 / sliced_threads=0 / nr=0 / decimate=0 / interlaced=0 / bluray_compat=0 / constrained_intra=0 / bframes=8 / b_pyramid=2 / b_adapt=2 / b_bias=0 / direct=3 / weightb=1 / open_gop=0 / weightp=2 / keyint=250 / keyint_min=24 / scenecut=40 / intra_refresh=0 / rc_lookahead=250 / rc=crf / mbtree=0 / crf=16.8 / qcomp=0.60 / qpmin=0 / qpmax=69 / qpstep=4 / vbv_maxrate=62500 / vbv_bufsize=78125 / crf_max=0.0 / nal_hrd=none / filler=0 / ip_ratio=1.30 / pb_ratio=1.20 / aq=3:0.80
Language : English
Default : Yes
Forced : No
Color range : Limited
Color primaries : BT.709
Matrix coefficients : BT.709

Audio #1
ID : 2
Format : AC-3
Format/Info : Audio Coding 3
Commercial name : Dolby Digital
Codec ID : A_AC3
Duration : 1 h 36 min
Bit rate mode : Constant
Bit rate : 448 kb/s
Channel(s) : 6 channels
Channel layout : L R C LFE Ls Rs
Sampling rate : 48.0 kHz
Frame rate : 31.250 FPS (1536 SPF)
Compression mode : Lossy
Stream size : 310 MiB (3%)
Title : Dub
Language : Russian
Service kind : Complete Main
Default : Yes
Forced : Yes

Audio #2
ID : 3
Format : E-AC-3
Format/Info : Enhanced AC-3
Commercial name : Dolby Digital Plus
Codec ID : A_EAC3
Duration : 1 h 36 min
Bit rate mode : Constant
Bit rate : 448 kb/s
Channel(s) : 6 channels
Channel layout : L R C LFE Ls Rs
Sampling rate : 48.0 kHz
Frame rate : 31.250 FPS (1536 SPF)
Compression mode : Lossy
Stream size : 310 MiB (3%)
Title : Dub
Language : Russian
Service kind : Complete Main
Default : No
Forced : No

Audio #3
ID : 4
Format : AC-3
Format/Info : Audio Coding 3
Commercial name : Dolby Digital
Codec ID : A_AC3
Duration : 1 h 36 min
Bit rate mode : Constant
Bit rate : 640 kb/s
Channel(s) : 6 channels
Channel layout : L R C LFE Ls Rs
Sampling rate : 48.0 kHz
Frame rate : 31.250 FPS (1536 SPF)
Compression mode : Lossy
Stream size : 442 MiB (4%)
Title : Original
Language : English
Service kind : Complete Main
Default : No
Forced : No

Text #1
ID : 5
Format : UTF-8
Codec ID : S_TEXT/UTF8
Codec ID/Info : UTF-8 Plain Text
Duration : 1 h 30 min
Bit rate : 64 b/s
Frame rate : 0.229 FPS
Count of elements : 1242
Stream size : 42.4 KiB (0%)
Title : Full
Language : English
Default : No
Forced : No

Text #2
ID : 6
Format : UTF-8
Codec ID : S_TEXT/UTF8
Codec ID/Info : UTF-8 Plain Text
Duration : 1 h 32 min
Bit rate : 67 b/s
Frame rate : 0.251 FPS
Count of elements : 1386
Stream size : 45.5 KiB (0%)
Title : SDH
Language : English
Default : No
Forced : No

Menu
00:00:00.000 : Chapter 01
00:11:16.676 : Chapter 02
00:20:13.212 : Chapter 03
00:26:52.611 : Chapter 04
00:35:09.107 : Chapter 05
00:43:00.578 : Chapter 06
00:52:10.127 : Chapter 07
00:57:15.432 : Chapter 08
01:06:26.983 : Chapter 09
01:13:15.391 : Chapter 10
01:22:24.982 : Chapter 11
01:32:43.558 : Chapter 12

Другие фильмы
У данной публикации пока нет комментариев.
Будь первым, оставь своё мнение в комментариях!
Информация
Посетители, находящиеся в группе Гости, не могут оставлять комментарии к данной публикации.
Самый популярный релиз недели
2.5 Gb ...

Кино копилка
...
Какую тему вы используете?

Реклама
Последние комментарии
...

bolonka123

Вчера, 18:48

...

Desol

Вчера, 17:34

...

bolonka123

Вчера, 14:50

...

Hargs

4 октября 2022 21:24

...

Robot

4 октября 2022 11:12