+3

Последние выжившие / Last Survivors (2021) BDRip 1080p от DoMiNo & селезень | iTunes

Информация о фильме
Название: Последние выжившие
Оригинальное название: Last Survivors
Год выхода: 2021
Жанр: Фантастика, триллер
Режиссер: Дрю Милреа
В ролях: Дрю Ван Экер, Алисия Сильверстоун, Стивен Мойер, Марк Фамильетти, Бенжамин Артур, Акааш Ядав, Саймон Лис

О фильме:
Оградившись от всего мира, Трой и его сын Джейк живут в лесной глуши. Когда отец получает ранение, сын отправляется во внешний мир за спасительным лекарством. Несмотря на приказ убивать любого, с кем он столкнется в пути, Джейк вступает в запрещенные отношения с таинственной женщиной Генриеттой.

Страна: США
Студия: El Ride Productions, Fry Cook Productions, SSS Entertainment, Yadav Productions
Продолжительность: 01:38:49
Перевод: Профессиональный (полное дублирование) | Zone Vision | iTunes
Субтитры: Английские (полные), Немецкие (форсированные (хардсаб))

Файл
Формат: Matroska
Качество: BDRip 1080p
Видео: 1920x680 at 23.976 fps, [email protected], ~5317 kbps
Аудио 1: AC3, 6 ch, ~384 kbps | Русский | Последние выжившие / Last Survivors (2021) BDRip 1080p от DoMiNo & селезень | iTunes
Аудио 2: AC3, 6 ch, ~640 kbps - | Английский |
Формат субтитров: softsub (SRT)

Последние выжившие / Last Survivors (2021) BDRip 1080p от DoMiNo & селезень | iTunes

Авторизуйтесь для получения доступа к скачиванию

Нет аккаунта? Регистрация открыта и займёт меньше минуты

Вход Регистрация

x264 [info]: frame I:932 Avg QP:15.61 size:117937
x264 [info]: frame P:28776 Avg QP:17.65 size: 62131
x264 [info]: frame B:112444 Avg QP:19.67 size: 18156
x264 [info]: consecutive B-frames: 1,6% 2,0% 7,0% 9,5% 13,5% 59,5% 6,5% 0,3% 0,1% 0,0% 0,0%

General
Unique ID : 122394955685846071275501842632975934299 (0×5C14693896D2D4AB026E2C386479635B)
Complete name : D:Last.Survivors.2021.BDRip.1080p.x264.seleZen.mkv
Format : Matroska
Format version : Version 4
File size : 4.38 GiB
Duration : 1 h 38 min
Overall bit rate : 6 342 kb/s
Movie name : Last.Survivors.2021.BDRip.1080p.x264.seleZen
Encoded date : UTC 22.09.2022 17:52:32
Writing application : mkvmerge v70.0.0 ('Caught A Lite Sneeze') 64-bit
Writing library : libebml v1.4.2 + libmatroska v1.6.4
Cover : Yes
Attachments : cover.jpg / small_cover.jpg

Video
ID : 1
Format : AVC
Format/Info : Advanced Video Codec
Format profile : [email protected]
Format settings : CABAC / 6 Ref Frames
Format settings, CABAC : Yes
Format settings, Reference : 6 frames
Codec ID : V_MPEG4/ISO/AVC
Duration : 1 h 38 min
Bit rate : 5 317 kb/s
Width : 1 920 pixels
Height : 680 pixels
Display aspect ratio : 2.824
Frame rate mode : Constant
Frame rate : 23.976 (24000/1001) FPS
Color space : YUV
Chroma subsampling : 4:2:0
Bit depth : 8 bits
Scan type : Progressive
Bits/(Pixel*Frame) : 0.170
Stream size : 3.67 GiB (84%)
Title : -=DoMiNo=-
Writing library : x264 core 164 by -=DoMiNo=-
Encoding settings : cabac=1 / ref=6 / deblock=1:-3:-2 / analyse=0×3:0×133 / me=umh / subme=10 / psy=1 / psy_rd=1.02:0.03 / mixed_ref=1 / me_range=32 / chroma_me=1 / trellis=2 / 8×8dct=1 / cqm=0 / deadzone=21,11 / fast_pskip=0 / chroma_qp_offset=-3 / threads=21 / lookahead_threads=5 / sliced_threads=0 / nr=0 / decimate=0 / interlaced=0 / bluray_compat=0 / constrained_intra=0 / bframes=10 / b_pyramid=2 / b_adapt=2 / b_bias=0 / direct=3 / weightb=1 / open_gop=0 / weightp=2 / keyint=250 / keyint_min=23 / scenecut=40 / intra_refresh=0 / rc_lookahead=60 / rc=2pass / mbtree=0 / bitrate=5317 / ratetol=1.0 / qcomp=0.70 / qpmin=0 / qpmax=69 / qpstep=4 / cplxblur=20.0 / qblur=0.5 / vbv_maxrate=50000 / vbv_bufsize=62500 / nal_hrd=none / filler=0 / ip_ratio=1.40 / pb_ratio=1.30 / aq=3:0.80
Language : English
Default : Yes
Forced : No

Audio #1
ID : 2
Format : AC-3
Format/Info : Audio Coding 3
Commercial name : Dolby Digital
Codec ID : A_AC3
Duration : 1 h 38 min
Bit rate mode : Constant
Bit rate : 384 kb/s
Channel (s) : 6 channels
Channel layout : L R C LFE Ls Rs
Sampling rate : 48.0 kHz
Frame rate : 31.250 FPS (1536 SPF)
Compression mode : Lossy
Stream size : 271 MiB (6%)
Title : DUB
Language : Russian
Service kind : Complete Main
Default : Yes
Forced : Yes

Audio #2
ID : 3
Format : AC-3
Format/Info : Audio Coding 3
Commercial name : Dolby Digital
Codec ID : A_AC3
Duration : 1 h 38 min
Bit rate mode : Constant
Bit rate : 640 kb/s
Channel (s) : 6 channels
Channel layout : L R C LFE Ls Rs
Sampling rate : 48.0 kHz
Frame rate : 31.250 FPS (1536 SPF)
Compression mode : Lossy
Stream size : 452 MiB (10%)
Title : Original
Language : English
Service kind : Complete Main
Default : No
Forced : No

Text
ID : 4
Format : UTF-8
Codec ID : S_TEXT/UTF8
Codec ID/Info : UTF-8 Plain Text
Duration : 1 h 32 min
Bit rate : 41 b/s
Count of elements : 968
Stream size : 28.3 KiB (0%)
Language : English
Default : No
Forced : No

Menu
00:00:00.000 : :Chapter 1
00:12:47.767 : :Chapter 2
00:24:07.446 : :Chapter 3
00:36:50.208 : :Chapter 4
00:49:55.993 : :Chapter 5
01:02:10.727 : :Chapter 6
01:13:58.434 : :Chapter 7
01:27:06.221 : :Chapter 8
01:34:23.658 : :Chapter 9

Другие фильмы
У данной публикации пока нет комментариев.
Будь первым, оставь своё мнение в комментариях!
Информация
Посетители, находящиеся в группе Гости, не могут оставлять комментарии к данной публикации.
Самый популярный релиз недели
2.5 Gb ...

Кино копилка
...
Какую тему вы используете?

Реклама
Последние комментарии
...

bolonka123

Вчера, 18:48

...

Desol

Вчера, 17:34

...

bolonka123

Вчера, 14:50

...

Hargs

4 октября 2022 21:24

...

Robot

4 октября 2022 11:12