+16

Зверь / Beast (2022) HDRip-AVC от DoMiNo & селезень | P | Jaskier, TVShows

Информация о фильме
Название: Зверь
Оригинальное название: Beast
Год выхода: 2022
Жанр: Ужасы, триллер, драма, приключения
Режиссер: Бальтасар Кормакур
В ролях: Идрис Эльба, Шарлто Копли, Ияна Хэлли, Леа Джеффрис, Мелани Джарнсон, Анзор Алем, Билли Галлахер, Дориан Хеджвуд, Кейт Грисли, Трэвис Лемрик

О фильме:
Доктор Нэйт Дэниелс после смерти жены возвращается в Южную Африку, где они познакомились. Вместе с дочерьми он направляется в заповедник, которым управляет давний друг семьи Мартин Баттлс. Однако семейная поездка оборачивается опасным приключением, в котором Нэйту придется бороться за выживание со свирепым львом.

Страна: США
Студия: Universal Pictures, RVK Studios, Will Packer Productions
Продолжительность: 01:32:52
Перевод 1: Профессиональный (многоголосый, закадровый) | Jaskier
Перевод 2: Профессиональный (многоголосый, закадровый) | TVShows [Благодарность за звук Romanych_777.]
Субтитры: Английские

Файл
Формат: Matroska
Качество: HDRip-AVC
Видео: 1024x428 at 23.976 fps, [email protected], ~2644 kbps
Аудио 1: AC3, 6 ch, ~448 kbps - | Русский | Зверь / Beast (2022) HDRip-AVC от DoMiNo & селезень | P | Jaskier, TVShows | Jaskier
Аудио 2: AC3, 2 ch, ~192 kbps - | Русский | | TVShows
Аудио 3: AC3, 6 ch, ~448 kbps - | Английский | | Original
Формат субтитров: softsub (SRT)

Зверь / Beast (2022) HDRip-AVC от DoMiNo & селезень | P | Jaskier, TVShows

Авторизуйтесь для получения доступа к скачиванию

Нет аккаунта? Регистрация открыта и займёт меньше минуты

Вход Регистрация

x264 [info]: frame I:667 Avg QP:15.55 size: 72708
x264 [info]: frame P:32743 Avg QP:18.07 size: 28012
x264 [info]: frame B:100051 Avg QP:20.23 size: 8734
x264 [info]: consecutive B-frames: 3.8% 4.5% 10.4% 21.9% 11.8% 42.7% 1.7% 0.4% 0.4% 1.5% 0.2% 0.2% 0.4%

General
Unique ID : 136906751540707499436657156116548245056 (0x66FF47FF386798433960AB7E64055640)
Complete name : D:Beast.2022.HDRip.x264.seleZen.mkv
Format : Matroska
Format version : Version 4
File size : 2.42 GiB
Duration : 1 h 32 min
Overall bit rate : 3 731 kb/s
Movie name : Beast.2022.HDRip.x264.seleZen
Encoded date : UTC 2022-10-02 10:21:06
Writing application : mkvmerge v70.0.0 ('Caught A Lite Sneeze') 64-bit
Writing library : libebml v1.4.2 + libmatroska v1.6.4
Cover : Yes
Attachments : cover.jpg / small_cover.jpg

Video
ID : 1
Format : AVC
Format/Info : Advanced Video Codec
Format profile : [email protected]
Format settings : CABAC / 14 Ref Frames
Format settings, CABAC : Yes
Format settings, Reference : 14 frames
Codec ID : V_MPEG4/ISO/AVC
Duration : 1 h 32 min
Bit rate : 2 644 kb/s
Width : 1 024 pixels
Height : 428 pixels
Display aspect ratio : 2.40:1
Frame rate mode : Constant
Frame rate : 23.976 (24000/1001) FPS
Color space : YUV
Chroma subsampling : 4:2:0
Bit depth : 8 bits
Scan type : Progressive
Bits/(Pixel*Frame) : 0.252
Stream size : 1.71 GiB (71%)
Title : -=DoMiNo=-
Writing library : x264 core 164 r3099+55M 141af3f t_mod_New | by -=DoMiNo=- | X86_64
Encoding settings : cabac=1 / ref=14 / deblock=1:-3:-2 / analyse=0x3:0x133 / me=umh / subme=10 / psy=1 / fade_compensate=0.00 / psy_rd=1.03:0.05 / mixed_ref=1 / me_range=32 / chroma_me=1 / trellis=2 / 8x8dct=1 / cqm=0 / deadzone=21,11 / fast_pskip=1 / chroma_qp_offset=-3 / threads=16 / lookahead_threads=3 / sliced_threads=0 / nr=0 / decimate=1 / interlaced=0 / bluray_compat=0 / constrained_intra=0 / fgo=0 / bframes=12 / b_pyramid=2 / b_adapt=2 / b_bias=0 / direct=1 / weightb=1 / open_gop=0 / weightp=2 / keyint=250 / keyint_min=23 / scenecut=40 / intra_refresh=0 / rc_lookahead=60 / rc=crf / mbtree=0 / crf=18.0000 / qcomp=0.65 / qpmin=0:0:0 / qpmax=69:69:69 / qpstep=4 / vbv_maxrate=50000 / vbv_bufsize=62500 / crf_max=0.0 / nal_hrd=none / filler=0 / ip_ratio=1.40 / pb_ratio=1.30 / aq=3:0.80 / aq-sensitivity=10.00 / aq-factor=1.00:1.00:1.00 / aq2=0 / aq3=0
Language : English
Default : Yes
Forced : No
Color range : Limited
Matrix coefficients : BT.709

Audio #1
ID : 2
Format : AC-3
Format/Info : Audio Coding 3
Commercial name : Dolby Digital
Codec ID : A_AC3
Duration : 1 h 32 min
Bit rate mode : Constant
Bit rate : 448 kb/s
Channel(s) : 6 channels
Channel layout : L R C LFE Ls Rs
Sampling rate : 48.0 kHz
Frame rate : 31.250 FPS (1536 SPF)
Compression mode : Lossy
Stream size : 298 MiB (12%)
Title : MVO [Jaskier]
Language : Russian
Service kind : Complete Main
Default : Yes
Forced : Yes

Audio #2
ID : 3
Format : AC-3
Format/Info : Audio Coding 3
Commercial name : Dolby Digital
Codec ID : A_AC3
Duration : 1 h 32 min
Bit rate mode : Constant
Bit rate : 192 kb/s
Channel(s) : 2 channels
Channel layout : L R
Sampling rate : 48.0 kHz
Frame rate : 31.250 FPS (1536 SPF)
Compression mode : Lossy
Stream size : 128 MiB (5%)
Title : MVO [TVShows]
Language : Russian
Service kind : Complete Main
Default : No
Forced : No

Audio #3
ID : 4
Format : AC-3
Format/Info : Audio Coding 3
Commercial name : Dolby Digital
Codec ID : A_AC3
Duration : 1 h 32 min
Bit rate mode : Constant
Bit rate : 448 kb/s
Channel(s) : 6 channels
Channel layout : L R C LFE Ls Rs
Sampling rate : 48.0 kHz
Frame rate : 31.250 FPS (1536 SPF)
Compression mode : Lossy
Stream size : 297 MiB (12%)
Title : Original
Language : English
Service kind : Complete Main
Default : No
Forced : No

Text #1
ID : 5
Format : UTF-8
Codec ID : S_TEXT/UTF8
Codec ID/Info : UTF-8 Plain Text
Duration : 24 min 46 s
Bit rate : 2 b/s
Count of elements : 27
Stream size : 495 Bytes (0%)
Title : Forced
Language : English
Default : No
Forced : No

Text #2
ID : 6
Format : UTF-8
Codec ID : S_TEXT/UTF8
Codec ID/Info : UTF-8 Plain Text
Duration : 1 h 32 min
Bit rate : 86 b/s
Count of elements : 2022
Stream size : 59.0 KiB (0%)
Title : Full
Language : English
Default : No
Forced : No

Text #3
ID : 7
Format : UTF-8
Codec ID : S_TEXT/UTF8
Codec ID/Info : UTF-8 Plain Text
Duration : 1 h 32 min
Bit rate : 89 b/s
Count of elements : 2048
Stream size : 60.8 KiB (0%)
Title : SDH
Language : English
Default : No
Forced : No

Menu
00:00:00.000 : en:Chapter 01
00:04:25.640 : en:Chapter 02
00:10:36.218 : en:Chapter 03
00:16:40.582 : en:Chapter 04
00:19:03.559 : en:Chapter 05
00:24:45.484 : en:Chapter 06
00:29:21.092 : en:Chapter 07
00:34:10.173 : en:Chapter 08
00:37:38.506 : en:Chapter 09
00:43:29.356 : en:Chapter 10
00:50:48.754 : en:Chapter 11
00:55:12.809 : en:Chapter 12
00:57:58.933 : en:Chapter 13
01:05:23.169 : en:Chapter 14
01:09:00.970 : en:Chapter 15
01:13:10.260 : en:Chapter 16
01:18:59.234 : en:Chapter 17
01:22:24.689 : en:Chapter 18
01:24:41.534 : en:Chapter 19
01:27:16.731 : en:Chapter 20

Другие фильмы
У данной публикации пока нет комментариев.
Будь первым, оставь своё мнение в комментариях!
Информация
Посетители, находящиеся в группе Гости, не могут оставлять комментарии к данной публикации.
Самый популярный релиз недели
BDRip 1080p 9.87 Gb ...

Кино копилка
...
Какую тему вы используете?

Реклама
Последние комментарии
...

bere

Сегодня, 12:40

...

Chilly

Сегодня, 12:17

...

Desol

Вчера, 15:18

...

ArchieBlake

Вчера, 07:46

...

павел

Вчера, 05:13

Реклама