+6

Пиноккио / Pinocchio (2022) WEB-DL 720p от селезень | P

Информация о фильме
Название: Пиноккио
Оригинальное название: Pinocchio
Год выхода: 2021
Жанр: Мюзикл, фэнтези, драма, комедия, приключения, семейный
Режиссер: Роберт Земекис
В ролях: Том Хэнкс, Люк Эванс, Синтиа Эриво, Джозеф Гордон-Левитт, Шила Атим, Лоррейн Бракко, Кигэн-Майкл Ки, Бенджамин Эван Эйнсуорт, Ханна Флинн, Латойя Хардинг
О фильме:
Игровая версия классического диснеевского мультфильма о деревянном мальчике Пиноккио от режиссера Роберта Земекиса.

Страна: США
Студия: Depth of Field, ImageMovers, Walt Disney Pictures
Продолжительность: 01:45:08
Перевод: Профессиональный многоголосый | Jaskier
Субтитры: Английские

Файл
Формат: Matroska
Качество: WEB-DL 720p
Видео: 1280×720 at 24.000 fps, [email protected], ~3665 kbps
Аудио 1: AC3, 6 ch, ~384 kbps — | Русский | Пиноккио / Pinocchio (2022) WEB-DL 720p от селезень | P
Аудио 2: E-AC3+Atmos, 6 ch, ~768 kbps — | Английский |
Формат субтитров: softsub (SRT)

Пиноккио / Pinocchio (2022) WEB-DL 720p от селезень | P

Авторизуйтесь для получения доступа к скачиванию

Нет аккаунта? Регистрация открыта и займёт меньше минуты

Вход Регистрация

General
Unique ID : 198038975757454686721847347898520076233 (0×94FCEB5AF60990CC98E5E52CEBDA7FC9)
Complete name : D:Pinocchio.2022.WEB-DL.720p.x264.seleZen.mkv
Format : Matroska
Format version : Version 4
File size : 3.54 GiB
Duration : 1 h 45 min
Overall bit rate mode : Variable
Overall bit rate : 4 819 kb/s
Movie name : Pinocchio.2022.WEB-DL.720p.x264.seleZen
Encoded date : UTC 10.09.2022 22:34:43
Writing application : mkvmerge v70.0.0 ('Caught A Lite Sneeze') 64-bit
Writing library : libebml v1.4.2 + libmatroska v1.6.4
Cover : Yes
Attachments : cover.jpg / small_cover.jpg

Video
ID : 1
Format : AVC
Format/Info : Advanced Video Codec
Format profile : [email protected]
Format settings : CABAC / 4 Ref Frames
Format settings, CABAC : Yes
Format settings, Reference : 4 frames
Codec ID : V_MPEG4/ISO/AVC
Duration : 1 h 45 min
Bit rate mode : Variable
Bit rate : 3 665 kb/s
Maximum bit rate : 6 375 kb/s
Width : 1 280 pixels
Height : 720 pixels
Display aspect ratio : 16:9
Frame rate mode : Constant
Frame rate : 24.000 FPS
Color space : YUV
Chroma subsampling : 4:2:0
Bit depth : 8 bits
Scan type : Progressive
Bits/(Pixel*Frame) : 0.166
Stream size : 2.69 GiB (76%)
Language : English
Default : Yes
Forced : No
Color range : Limited
Color primaries : BT.709
Transfer characteristics : BT.709
Matrix coefficients : BT.709

Audio #1
ID : 2
Format : AC-3
Format/Info : Audio Coding 3
Commercial name : Dolby Digital
Codec ID : A_AC3
Duration : 1 h 45 min
Bit rate mode : Constant
Bit rate : 384 kb/s
Channel (s) : 6 channels
Channel layout : L R C LFE Ls Rs
Sampling rate : 48.0 kHz
Frame rate : 31.250 FPS (1536 SPF)
Compression mode : Lossy
Stream size : 289 MiB (8%)
Title : MVO [Jaskier]
Language : Russian
Service kind : Complete Main
Default : Yes
Forced : Yes

Audio #2
ID : 3
Format : E-AC-3 JOC
Format/Info : Enhanced AC-3 with Joint Object Coding
Commercial name : Dolby Digital Plus with Dolby Atmos
Codec ID : A_EAC3
Duration : 1 h 45 min
Bit rate mode : Constant
Bit rate : 768 kb/s
Channel (s) : 6 channels
Channel layout : L R C LFE Ls Rs
Sampling rate : 48.0 kHz
Frame rate : 31.250 FPS (1536 SPF)
Compression mode : Lossy
Stream size : 578 MiB (16%)
Title : Original
Language : English
Service kind : Complete Main
Default : No
Forced : No
Complexity index : 16
Number of dynamic objects : 15
Bed channel count : 1 channel
Bed channel configuration : LFE

Text #1
ID : 4
Format : UTF-8
Codec ID : S_TEXT/UTF8
Codec ID/Info : UTF-8 Plain Text
Duration : 1 h 38 min
Bit rate : 56 b/s
Count of elements : 1139
Stream size : 40.9 KiB (0%)
Title : Full
Language : English
Default : No
Forced : No

Text #2
ID : 5
Format : UTF-8
Codec ID : S_TEXT/UTF8
Codec ID/Info : UTF-8 Plain Text
Duration : 1 h 38 min
Bit rate : 69 b/s
Count of elements : 1564
Stream size : 50.2 KiB (0%)
Title : SDH
Language : English
Default : No
Forced : No

Menu
01:37:10.208 : en:Credits

Другие фильмы
У данной публикации пока нет комментариев.
Будь первым, оставь своё мнение в комментариях!
Информация
Посетители, находящиеся в группе Гости, не могут оставлять комментарии к данной публикации.
Самый популярный релиз недели
BDRip 1080p 9.87 Gb ...

Кино копилка
...
Какую тему вы используете?

Реклама
Последние комментарии
...

bere

Сегодня, 12:40

...

Chilly

Сегодня, 12:17

...

Desol

Вчера, 15:18

...

ArchieBlake

Вчера, 07:46

...

павел

Вчера, 05:13

Реклама