+2

Пиноккио / Pinocchio (2022) WEB-DL 1080p от селезень | P

Информация о фильме
Название: Пиноккио
Оригинальное название: Pinocchio
Год выхода: 2021
Жанр: Мюзикл, фэнтези, драма, комедия, приключения, семейный
Режиссер: Роберт Земекис
В ролях: Бенджамин Эван Эйнсуорт, Том Хэнкс, собрания Гордон-Левитт, Кигэн-Майкл Ки, Люк Эванс, Синтия Эриво, Энгус Райт, Шила Атим, Лоррейн Бракко, Джэми Деметриу

О фильме: Игровая версия классического диснеевского мультфильма о деревянном мальчике Пиноккио от режиссера Роберта Земекиса.

Страна: США
Студия: Depth of Field, ImageMovers, Walt Disney Pictures
Продолжительность: 01:45:08
Перевод: Профессиональный многоголосый | Jaskier

Качество: WEB-DL 1080p
Видео: MPEG-4 AVC, 1920x1080, 6951 Кbit/s, 24.000 fps
Аудио #01: 48 kHz, AC3, 5.1, 384 Kbps | Профессиональный многоголосый | Jaskier | RUS |Пиноккио / Pinocchio (2022) WEB-DL 1080p от селезень | P
Аудио #02: 48 kHz, E-AC3+Atmos, 5.1, 768 Kbps | Оригинал | ENG |
Субтитры: Английские

Пиноккио / Pinocchio (2022) WEB-DL 1080p от селезень | P

Авторизуйтесь для получения доступа к скачиванию

Нет аккаунта? Регистрация открыта и займёт меньше минуты

Вход Регистрация

General
Unique ID : 150396586628893179843225264445253588249 (0x7125543786045A1C7F0A7F26E5099519)
Complete name : F:\Video\Pinocchio.2022.WEB-DL.1080p.seleZen.mkv
Format : Matroska
Format version : Version 4
File size : 5.95 GiB
Duration : 1 h 45 min
Overall bit rate mode : Variable
Overall bit rate : 8 106 kb/s
Movie name : Pinocchio 2022 from seleZen
Encoded date : UTC 2022-09-10 22:05:34
Writing application : mkvmerge v59.0.0 ('Shining Star') 64-bit
Writing library : libebml v1.4.2 + libmatroska v1.6.4

Video
ID : 1
Format : AVC
Format/Info : Advanced Video Codec
Format profile : [email protected]
Format settings : CABAC / 4 Ref Frames
Format settings, CABAC : Yes
Format settings, Reference : 4 frames
Codec ID : V_MPEG4/ISO/AVC
Duration : 1 h 45 min
Bit rate mode : Variable
Bit rate : 6 951 kb/s
Maximum bit rate : 12.7 Mb/s
Width : 1 920 pixels
Height : 1 080 pixels
Display aspect ratio : 16:9
Frame rate mode : Constant
Frame rate : 24.000 FPS
Color space : YUV
Chroma subsampling : 4:2:0
Bit depth : 8 bits
Scan type : Progressive
Bits/(Pixel*Frame) : 0.140
Stream size : 5.11 GiB (86%)
Language : English
Default : Yes
Forced : No
Color range : Limited
Color primaries : BT.709
Transfer characteristics : BT.709
Matrix coefficients : BT.709

Audio #1
ID : 2
Format : AC-3
Format/Info : Audio Coding 3
Commercial name : Dolby Digital
Codec ID : A_AC3
Duration : 1 h 45 min
Bit rate mode : Constant
Bit rate : 384 kb/s
Channel(s) : 6 channels
Channel layout : L R C LFE Ls Rs
Sampling rate : 48.0 kHz
Frame rate : 31.250 FPS (1536 SPF)
Compression mode : Lossy
Stream size : 289 MiB (5%)
Title : MVO [Jaskier]
Language : Russian
Service kind : Complete Main
Default : Yes
Forced : Yes

Audio #2
ID : 3
Format : E-AC-3 JOC
Format/Info : Enhanced AC-3 with Joint Object Coding
Commercial name : Dolby Digital Plus with Dolby Atmos
Codec ID : A_EAC3
Duration : 1 h 45 min
Bit rate mode : Constant
Bit rate : 768 kb/s
Channel(s) : 6 channels
Channel layout : L R C LFE Ls Rs
Sampling rate : 48.0 kHz
Frame rate : 31.250 FPS (1536 SPF)
Compression mode : Lossy
Stream size : 578 MiB (9%)
Title : Original
Language : English
Service kind : Complete Main
Default : No
Forced : No
Complexity index : 16
Number of dynamic objects : 15
Bed channel count : 1 channel
Bed channel configuration : LFE

Text
ID : 4
Format : UTF-8
Codec ID : S_TEXT/UTF8
Codec ID/Info : UTF-8 Plain Text
Duration : 1 h 38 min
Bit rate : 71 b/s
Frame rate : 0.265 FPS
Count of elements : 1564
Stream size : 51.5 KiB (0%)
Title : SDH
Language : English
Default : No
Forced : No

Другие фильмы
У данной публикации пока нет комментариев.
Будь первым, оставь своё мнение в комментариях!
Информация
Посетители, находящиеся в группе Гости, не могут оставлять комментарии к данной публикации.
Самый популярный релиз недели
BDRip 1080p 9.87 Gb ...

Кино копилка
...
Какую тему вы используете?

Реклама
Последние комментарии
...

Robot

Сегодня, 18:53

...

bere

Сегодня, 12:40

...

Chilly

Сегодня, 12:17

...

Desol

Вчера, 15:18

...

ArchieBlake

Вчера, 07:46

Реклама