+6

Элвис / Elvis (2022) BDRip 720p от селезень | D | Red Head Sound

Информация о фильме
Название: Элвис
Оригинальное название: Elvis
Год выхода: 2022
Жанр: Биография, драма, музыка
Режиссер: Баз Лурман
В ролях: Остин Батлер, Коди Смит-Макфи, Том Хэнкс, Дэвид Уинам, Дэйкр Монтгомери, Люк Брейси, Оливия ДеДжонг, Ричард Роксбург, Келвин Харрисон-мл., Ксавьер Сэмюэл, Кейт Малвани, Элизабет Каллен, Наташа Бассетт, Мелина Видлер, Леон Форд, Кристофер Соммерс, Джош МакКонвилл, Гэри Кларк-младший, Хелен Томсон, Чарльз Граундс, Чайдон Джей, Адам Данн, Йола, Гарет Дэвис, Алекс Раду, Элтон Мейсон, Лилли Уоллес, Майк Бингаман, Шэрон Брукс, Кристиан Маккарти, Дэвид Гэннон (II), Асаби Гудман, Патрик Ширер, Джек МакГирр, Сандро Коларелли, Ши Д’Монфор, Лиам Доннелли, Сильвана Аззи Эрас

О фильме:
История жизни и музыки Элвиса Пресли через призму сложных взаимоотношений с его менеджером, полковником Томом Паркером. Они работали вместе более 20 лет: от начала карьеры Элвиса до его небывалой славы.

Страна: США, Австралия
Студия: Bazmark Films, Roadshow Entertainment, The Jackal Group
Продолжительность: 02:39:15
Перевод: Дублированный (любительский) | Red Head Sound
Субтитры: Русские (Forced, Full), английские

Файл
Формат: Matroska
Качество: BDRip 720p
Видео: 1280×536 at 23.976 fps, [email protected], ~5485 kbps
Аудио 1: AC3, 6 ch, ~640 kbps — | Русский | Элвис / Elvis (2022) BDRip 720p от селезень | D | Red Head Sound | DUB | Red Head Sound
Аудио 4: AC3, 6 ch, ~640 kbps — | Английский | | Оригинал
Формат субтитров: softsub (SRT)

Элвис / Elvis (2022) BDRip 720p от селезень | D | Red Head Sound

Авторизуйтесь для получения доступа к скачиванию

Нет аккаунта? Регистрация открыта и займёт меньше минуты

Вход Регистрация

General
Unique ID : 235681664455084730648233636854881975553 (0xB14EA332A8121DEE00A47B91030DFD01)
Complete name : D:Elvis.2022.BDRip.720p.x264.seleZen.mkv
Format : Matroska
Format version : Version 4
File size : 7.53 GiB
Duration : 2 h 39 min
Overall bit rate : 6 768 kb/s
Movie name : Elvis.2022.BDRip.720p.x264.seleZen
Encoded date : UTC 06.09.2022 09:19:51
Writing application : mkvmerge v70.0.0 ('Caught A Lite Sneeze') 64-bit
Writing library : libebml v1.4.2 + libmatroska v1.6.4
Cover : Yes
Attachments : cover.jpg / small_cover.jpg

Video
ID : 1
Format : AVC
Format/Info : Advanced Video Codec
Format profile : [email protected]
Format settings : CABAC / 12 Ref Frames
Format settings, CABAC : Yes
Format settings, Reference : 12 frames
Codec ID : V_MPEG4/ISO/AVC
Duration : 2 h 39 min
Bit rate : 5 485 kb/s
Width : 1 280 pixels
Height : 536 pixels
Display aspect ratio : 2.40:1
Frame rate mode : Constant
Frame rate : 23.976 (24000/1001) FPS
Color space : YUV
Chroma subsampling : 4:2:0
Bit depth : 8 bits
Scan type : Progressive
Bits/(Pixel*Frame) : 0.333
Stream size : 6.10 GiB (81%)
Title : MTeam
Writing library : x264 core 157 r2938 2b00a84 [email protected] Mod
Encoding settings : cabac=1 / ref=12 / deblock=1:-3:-3 / analyse=0×3:0×133 / me=umh / subme=10 / psy=1 / psy_rd=1.05:0.00 / mixed_ref=1 / me_range=32 / chroma_me=1 / trellis=2 / 8×8dct=1 / cqm=0 / deadzone=21,11 / fast_pskip=0 / chroma_qp_offset=-2 / threads=12 / lookahead_threads=2 / sliced_threads=0 / nr=0 / decimate=0 / interlaced=0 / bluray_compat=0 / constrained_intra=0 / bframes=8 / b_pyramid=2 / b_adapt=2 / b_bias=0 / direct=3 / weightb=1 / open_gop=0 / weightp=2 / keyint=250 / keyint_min=24 / scenecut=40 / intra_refresh=0 / rc_lookahead=250 / rc=crf / mbtree=0 / crf=16.8 / qcomp=0.60 / qpmin=0 / qpmax=69 / qpstep=4 / vbv_maxrate=62500 / vbv_bufsize=78125 / crf_max=0.0 / nal_hrd=none / filler=0 / ip_ratio=1.30 / pb_ratio=1.20 / aq=3:0.80
Language : English
Default : Yes
Forced : No
Color range : Limited
Color primaries : BT.709
Matrix coefficients : BT.709

Audio #1
ID : 2
Format : AC-3
Format/Info : Audio Coding 3
Commercial name : Dolby Digital
Codec ID : A_AC3
Duration : 2 h 39 min
Bit rate mode : Constant
Bit rate : 640 kb/s
Channel (s) : 6 channels
Channel layout : L R C LFE Ls Rs
Sampling rate : 48.0 kHz
Frame rate : 31.250 FPS (1536 SPF)
Compression mode : Lossy
Stream size : 729 MiB (9%)
Title : DUB [RHS]
Language : Russian
Service kind : Complete Main
Default : Yes
Forced : Yes

Audio #2
ID : 3
Format : AC-3
Format/Info : Audio Coding 3
Commercial name : Dolby Digital
Codec ID : A_AC3
Duration : 2 h 39 min
Bit rate mode : Constant
Bit rate : 640 kb/s
Channel (s) : 6 channels
Channel layout : L R C LFE Ls Rs
Sampling rate : 48.0 kHz
Frame rate : 31.250 FPS (1536 SPF)
Compression mode : Lossy
Stream size : 729 MiB (9%)
Title : Original
Language : English
Service kind : Complete Main
Default : No
Forced : No

Text #1
ID : 4
Format : UTF-8
Codec ID : S_TEXT/UTF8
Codec ID/Info : UTF-8 Plain Text
Duration : 2 h 29 min
Bit rate : 3 b/s
Count of elements : 73
Stream size : 3.56 KiB (0%)
Title : Forced
Language : Russian
Default : Yes
Forced : No

Text #2
ID : 5
Format : UTF-8
Codec ID : S_TEXT/UTF8
Codec ID/Info : UTF-8 Plain Text
Duration : 2 h 38 min
Bit rate : 79 b/s
Count of elements : 1753
Stream size : 92.2 KiB (0%)
Title : Full
Language : Russian
Default : No
Forced : No

Text #3
ID : 6
Format : UTF-8
Codec ID : S_TEXT/UTF8
Codec ID/Info : UTF-8 Plain Text
Duration : 2 h 39 min
Bit rate : 68 b/s
Count of elements : 2537
Stream size : 79.9 KiB (0%)
Title : Full
Language : English
Default : No
Forced : No

Text #4
ID : 7
Format : UTF-8
Codec ID : S_TEXT/UTF8
Codec ID/Info : UTF-8 Plain Text
Duration : 2 h 39 min
Bit rate : 78 b/s
Count of elements : 2827
Stream size : 91.2 KiB (0%)
Title : SDH
Language : English
Default : No
Forced : No

Menu
00:00:00.000 : en:Chapter 01
00:09:07.046 : en:Chapter 02
00:14:31.662 : en:Chapter 03
00:22:06.367 : en:Chapter 04
00:29:47.369 : en:Chapter 05
00:38:06.576 : en:Chapter 06
00:46:21.112 : en:Chapter 07
00:53:34.044 : en:Chapter 08
01:03:29.305 : en:Chapter 09
01:12:05.071 : en:Chapter 10
01:21:10.616 : en:Chapter 11
01:30:17.245 : en:Chapter 12
01:39:19.370 : en:Chapter 13
01:48:44.977 : en:Chapter 14
01:57:10.899 : en:Chapter 15
02:04:46.145 : en:Chapter 16
02:13:03.934 : en:Chapter 17
02:22:35.630 : en:Chapter 18
02:29:55.862 : en:Chapter 19

Другие фильмы
У данной публикации пока нет комментариев.
Будь первым, оставь своё мнение в комментариях!
Информация
Посетители, находящиеся в группе Гости, не могут оставлять комментарии к данной публикации.
Самый популярный релиз недели
BDRip 1080p 9.87 Gb ...

Кино копилка
...
Какую тему вы используете?

Реклама
Последние комментарии
...

bere

Сегодня, 12:40

...

Chilly

Сегодня, 12:17

...

Desol

Вчера, 15:18

...

ArchieBlake

Вчера, 07:46

...

павел

Вчера, 05:13

Реклама