+4

Элвис / Elvis (2022) BDRemux 1080p от селезень | D, P

Информация о фильме
Название: Элвис
Оригинальное название: Elvis
Год выхода: 2022
Жанр: биография, музыка, драма
Режиссер: Баз Лурман
В ролях: Остин Батлер, Том Хэнкс, Оливия ДеДжонг, Хелен Томсон, Ричард Роксбург, Келвин Харрисон, Дэвид Уэнэм, Коди Смит-Макфи, Люк Брейси, Дэйкер Монтгомери

О фильме: История жизни и творческого пути короля рок-н-ролла Элвиса Пресли через призму сложных взаимоотношений с его одиозным менеджером, полковником Томом Паркером. Они работали вместе более 20 лет: от начала карьеры Элвиса до его небывалой славы.

Страна: США, Австралия
Студия: Bazmark Films, The Jackal Group, Warner Bros., Whalerock Industries
Продолжительность: 02:39:15
Перевод(ы):
#1: Дублированный | Bravo Records Georgia
#2: Профессиональный многоголосый | Jaskier
#3: Профессиональный многоголосый | TVShows


Качество: BDRemux 1080p
Видео: MPEG-4 AVC, 1920x1080, 24.2 Mbit/s, 23.976 fps
Аудио #01: 48 kHz, AC3, 5.1, 384 Kbps | Дублированный | Bravo Records Georgia | RUS |Элвис / Elvis (2022) BDRemux 1080p от селезень | D, P
Аудио #02: 48 kHz, AC3, 5.1, 448 Kbps | Профессиональный многоголосый | Jaskier | RUS |
Аудио #03: 48 kHz, AC3, 2.0, 192 Kbps | Профессиональный многоголосый | TVShows | RUS |
Аудио #04: 48 kHz, TrueHD, 7.1, 3021 Kbps | Оригинал | ENG |
Аудио #05: 48 kHz, AC3, 5.1, 448 Kbps | Оригинал | ENG |
Субтитры: Русские (Forced, Full), английские

Элвис / Elvis (2022) BDRemux 1080p от селезень | D, P

Авторизуйтесь для получения доступа к скачиванию

Нет аккаунта? Регистрация открыта и займёт меньше минуты

Вход Регистрация

General
Unique ID : 180285432309733249567521223043378327420 (0x87A1B61547C08E6EC0A5A98DFA6C2F7C)
Complete name : F:\Video\Elvis.2022.BDREMUX.1080p.seleZen.mkv
Format : Matroska
Format version : Version 4
File size : 32.0 GiB
Duration : 2 h 39 min
Overall bit rate mode : Variable
Overall bit rate : 28.7 Mb/s
Movie name : Elvis 2022 from seleZen
Encoded date : UTC 2022-09-05 12:24:56
Writing application : mkvmerge v59.0.0 ('Shining Star') 64-bit
Writing library : libebml v1.4.2 + libmatroska v1.6.4

Video
ID : 1
Format : AVC
Format/Info : Advanced Video Codec
Format profile : [email protected]
Format settings : CABAC / 4 Ref Frames
Format settings, CABAC : Yes
Format settings, Reference : 4 frames
Codec ID : V_MPEG4/ISO/AVC
Duration : 2 h 39 min
Bit rate mode : Variable
Bit rate : 24.2 Mb/s
Maximum bit rate : 33.2 Mb/s
Width : 1 920 pixels
Height : 1 080 pixels
Display aspect ratio : 16:9
Frame rate mode : Constant
Frame rate : 23.976 (24000/1001) FPS
Color space : YUV
Chroma subsampling : 4:2:0
Bit depth : 8 bits
Scan type : Progressive
Bits/(Pixel*Frame) : 0.487
Stream size : 26.9 GiB (84%)
Language : English
Default : No
Forced : No

Audio #1
ID : 2
Format : AC-3
Format/Info : Audio Coding 3
Commercial name : Dolby Digital
Codec ID : A_AC3
Duration : 2 h 39 min
Bit rate mode : Constant
Bit rate : 384 kb/s
Channel(s) : 6 channels
Channel layout : L R C LFE Ls Rs
Sampling rate : 48.0 kHz
Frame rate : 31.250 FPS (1536 SPF)
Compression mode : Lossy
Stream size : 439 MiB (1%)
Title : Dub
Language : Russian
Service kind : Complete Main
Default : Yes
Forced : Yes

Audio #2
ID : 3
Format : AC-3
Format/Info : Audio Coding 3
Commercial name : Dolby Digital
Codec ID : A_AC3
Duration : 2 h 39 min
Bit rate mode : Constant
Bit rate : 448 kb/s
Channel(s) : 6 channels
Channel layout : L R C LFE Ls Rs
Sampling rate : 48.0 kHz
Frame rate : 31.250 FPS (1536 SPF)
Compression mode : Lossy
Stream size : 510 MiB (2%)
Title : MVO [Jaskier]
Language : Russian
Service kind : Complete Main
Default : No
Forced : No

Audio #3
ID : 4
Format : AC-3
Format/Info : Audio Coding 3
Commercial name : Dolby Digital
Codec ID : A_AC3
Duration : 2 h 39 min
Bit rate mode : Constant
Bit rate : 192 kb/s
Channel(s) : 2 channels
Channel layout : L R
Sampling rate : 48.0 kHz
Frame rate : 31.250 FPS (1536 SPF)
Compression mode : Lossy
Stream size : 219 MiB (1%)
Title : MVO [TVShows]
Language : Russian
Service kind : Complete Main
Default : No
Forced : No

Audio #4
ID : 5
Format : MLP FBA 16-ch
Format/Info : Meridian Lossless Packing FBA with 16-channel presentation
Commercial name : Dolby TrueHD with Dolby Atmos
Codec ID : A_TRUEHD
Duration : 2 h 39 min
Bit rate mode : Variable
Bit rate : 3 021 kb/s
Maximum bit rate : 4 668 kb/s
Channel(s) : 8 channels
Channel layout : L R C LFE Ls Rs Lb Rb
Sampling rate : 48.0 kHz
Frame rate : 1 200.000 FPS (40 SPF)
Compression mode : Lossless
Stream size : 3.36 GiB (11%)
Title : Original
Language : English
Default : No
Forced : No
Number of dynamic objects : 11
Bed channel count : 1 channel
Bed channel configuration : LFE

Audio #5
ID : 6
Format : AC-3
Format/Info : Audio Coding 3
Commercial name : Dolby Digital
Codec ID : A_AC3
Duration : 2 h 39 min
Bit rate mode : Constant
Bit rate : 448 kb/s
Channel(s) : 6 channels
Channel layout : L R C LFE Ls Rs
Sampling rate : 48.0 kHz
Frame rate : 31.250 FPS (1536 SPF)
Compression mode : Lossy
Stream size : 510 MiB (2%)
Language : English
Service kind : Complete Main
Default : No
Forced : No

Text #1
ID : 7
Format : UTF-8
Codec ID : S_TEXT/UTF8
Codec ID/Info : UTF-8 Plain Text
Duration : 2 h 29 min
Bit rate : 3 b/s
Frame rate : 0.008 FPS
Count of elements : 73
Stream size : 3.56 KiB (0%)
Title : Forced
Language : Russian
Default : Yes
Forced : Yes

Text #2
ID : 8
Format : UTF-8
Codec ID : S_TEXT/UTF8
Codec ID/Info : UTF-8 Plain Text
Duration : 2 h 38 min
Bit rate : 79 b/s
Frame rate : 0.184 FPS
Count of elements : 1753
Stream size : 92.2 KiB (0%)
Title : Full
Language : Russian
Default : No
Forced : No

Text #3
ID : 9
Format : UTF-8
Codec ID : S_TEXT/UTF8
Codec ID/Info : UTF-8 Plain Text
Duration : 2 h 39 min
Bit rate : 68 b/s
Frame rate : 0.266 FPS
Count of elements : 2537
Stream size : 79.9 KiB (0%)
Title : Full
Language : English
Default : No
Forced : No

Text #4
ID : 10
Format : UTF-8
Codec ID : S_TEXT/UTF8
Codec ID/Info : UTF-8 Plain Text
Duration : 2 h 39 min
Bit rate : 78 b/s
Frame rate : 0.296 FPS
Count of elements : 2827
Stream size : 91.2 KiB (0%)
Title : SDH
Language : English
Default : No
Forced : No

Menu
00:00:00.000 : Chapter 01
00:09:07.046 : Chapter 02
00:14:31.662 : Chapter 03
00:22:06.367 : Chapter 04
00:29:47.369 : Chapter 05
00:38:06.576 : Chapter 06
00:46:21.112 : Chapter 07
00:53:34.044 : Chapter 08
01:03:29.305 : Chapter 09
01:12:05.071 : Chapter 10
01:21:10.616 : Chapter 11
01:30:17.245 : Chapter 12
01:39:19.370 : Chapter 13
01:48:44.977 : Chapter 14
01:57:10.899 : Chapter 15
02:04:46.145 : Chapter 16
02:13:03.934 : Chapter 17
02:22:35.630 : Chapter 18
02:29:55.862 : Chapter 19

Другие фильмы
У данной публикации пока нет комментариев.
Будь первым, оставь своё мнение в комментариях!
Информация
Посетители, находящиеся в группе Гости, не могут оставлять комментарии к данной публикации.
Самый популярный релиз недели
BDRip 1080p 9.87 Gb ...

Кино копилка
...
Какую тему вы используете?

Реклама
Последние комментарии
...

bere

Сегодня, 12:40

...

Chilly

Сегодня, 12:17

...

Desol

Вчера, 15:18

...

ArchieBlake

Вчера, 07:46

...

павел

Вчера, 05:13

Реклама