+7

Одержимые / The Possessed (2021) BDRip 1080p от селезень | D

Информация о фильме
Название: Одержимые
Оригинальное название: The Possessed
Год выхода: 2021
Жанр: ужасы
Режиссер: Крис Сан
В ролях: Джон Джаррэтт, Линкольн Льюис, Лорен Гримсон, Энджи Кент, Джейд Кевин Фостер, Симона Бьюкэнэн, Мелисса Ткауц, Роми Пулье, Шон Линч, Мелисса Белл

О фильме: Джейкоб Чендлер - обычный человек с необыкновенным даром. Попав в аварию, он обнаружил в себе способности экзорциста и теперь с помощью племянника Лиама начинает исполнять ритуалы изгнания демонов. Вскоре они начинают замечать, что одержимых становится все больше и больше.

Страна: Австралия
Студия: Giddy Up Films, Nexus Files Studios, OZPIX Entertainment, Slaughter FX
Продолжительность: 01:37:29
Перевод: Дублированный | Pride Production

Качество: BDRip 1080p
Видео: MPEG-4 AVC, 1920x804, 12.0 Mbit/s, 23.976 fps
Аудио #01: 48 kHz, AC3, 5.1, 448 Kbps | Дублированный | Pride Production | RUS |Одержимые / The Possessed (2021) BDRip 1080p от селезень | D
Аудио #02: 48 kHz, AC3, 5.1, 640 Kbps | Оригинал | ENG |
Субтитры: Английские

Одержимые / The Possessed (2021) BDRip 1080p от селезень | D

Авторизуйтесь для получения доступа к скачиванию

Нет аккаунта? Регистрация открыта и займёт меньше минуты

Вход Регистрация

General
Unique ID : 18107889164546052581359349529319472578 (0xD9F73DD6863894C21C6450695BE7DC2)
Complete name : D:\Videos\The.Possessed.2021.BDRip.1080p.seleZen.mkv
Format : Matroska
Format version : Version 4
File size : 8.91 GiB
Duration : 1 h 37 min
Overall bit rate : 13.1 Mb/s
Movie name : The Possessed 2021 from seleZen
Encoded date : UTC 2022-10-15 18:34:37
Writing application : mkvmerge v59.0.0 ('Shining Star') 64-bit
Writing library : libebml v1.4.2 + libmatroska v1.6.4

Video
ID : 1
Format : AVC
Format/Info : Advanced Video Codec
Format profile : [email protected]
Format settings : CABAC / 5 Ref Frames
Format settings, CABAC : Yes
Format settings, Reference : 5 frames
Codec ID : V_MPEG4/ISO/AVC
Duration : 1 h 37 min
Bit rate : 12.0 Mb/s
Width : 1 920 pixels
Height : 804 pixels
Display aspect ratio : 2.40:1
Frame rate mode : Constant
Frame rate : 23.976 (24000/1001) FPS
Color space : YUV
Chroma subsampling : 4:2:0
Bit depth : 8 bits
Scan type : Progressive
Bits/(Pixel*Frame) : 0.324
Stream size : 8.17 GiB (92%)
Writing library : x264 core 164 r3085+55M seleZen t_mod_New [(8 & 10)[email protected] X86_64]
Encoding settings : cabac=1 / ref=5 / deblock=1:-2:-2 / analyse=0x3:0x133 / me=umh / subme=11 / psy=1 / fade_compensate=0.00 / psy_rd=1.01:0.01 / mixed_ref=1 / me_range=32 / chroma_me=1 / trellis=2 / 8x8dct=1 / cqm=0 / deadzone=21,11 / fast_pskip=0 / chroma_qp_offset=-3 / threads=25 / lookahead_threads=4 / sliced_threads=0 / nr=0 / decimate=0 / interlaced=0 / bluray_compat=0 / constrained_intra=0 / fgo=0 / bframes=9 / b_pyramid=2 / b_adapt=2 / b_bias=0 / direct=3 / weightb=1 / open_gop=0 / weightp=2 / keyint=240 / keyint_min=23 / scenecut=40 / intra_refresh=0 / rc_lookahead=60 / rc=2pass / mbtree=0 / bitrate=12000 / ratetol=1.0 / qcomp=0.60 / qpmin=0:0:0 / qpmax=51:51:51 / qpstep=4 / cplxblur=20.0 / qblur=0.5 / vbv_maxrate=50000 / vbv_bufsize=62500 / nal_hrd=none / filler=0 / ip_ratio=1.40 / pb_ratio=1.30 / aq=3:0.80 / aq-sensitivity=10.00 / aq-factor=1.00:1.00:1.00 / aq2=0 / aq3=0
Language : English
Default : Yes
Forced : No

Audio #1
ID : 2
Format : AC-3
Format/Info : Audio Coding 3
Commercial name : Dolby Digital
Codec ID : A_AC3
Duration : 1 h 37 min
Bit rate mode : Constant
Bit rate : 448 kb/s
Channel(s) : 6 channels
Channel layout : L R C LFE Ls Rs
Sampling rate : 48.0 kHz
Frame rate : 31.250 FPS (1536 SPF)
Compression mode : Lossy
Stream size : 312 MiB (3%)
Title : DUB_[Pride Production]
Language : Russian
Service kind : Complete Main
Default : Yes
Forced : Yes

Audio #2
ID : 3
Format : AC-3
Format/Info : Audio Coding 3
Commercial name : Dolby Digital
Codec ID : A_AC3
Duration : 1 h 37 min
Bit rate mode : Constant
Bit rate : 640 kb/s
Channel(s) : 6 channels
Channel layout : L R C LFE Ls Rs
Sampling rate : 48.0 kHz
Frame rate : 31.250 FPS (1536 SPF)
Compression mode : Lossy
Stream size : 446 MiB (5%)
Title : Original
Language : English
Service kind : Complete Main
Default : No
Forced : No

Text
ID : 4
Format : UTF-8
Codec ID : S_TEXT/UTF8
Codec ID/Info : UTF-8 Plain Text
Duration : 1 h 31 min
Bit rate : 59 b/s
Frame rate : 0.229 FPS
Count of elements : 1252
Stream size : 40.0 KiB (0%)
Title : Full
Language : English
Default : No
Forced : No

Menu
00:00:00.000 : Глава 01
00:11:37.655 : Глава 02
00:21:00.842 : Глава 03
00:31:23.298 : Глава 04
00:38:51.495 : Глава 05
00:46:55.729 : Глава 06
00:53:22.657 : Глава 07
00:59:48.376 : Глава 08
01:08:42.118 : Глава 09
01:16:01.139 : Глава 10
01:23:25.875 : Глава 11
01:32:08.564 : Глава 12

Другие фильмы
Комментарии:

...
nagan_74m 23 октября 2022 19:01
0

Ну, фильм на раз, и сначала понимаешь, что уже не очень - как только он начинает трясти рукой.

Грим одержимых зачет, но это единственное что зачетно в этом фильме. 

Тем не менее я досмотрел его до конца, и меня впечатлило то, что на съемки тут убили всего максимум 7-10к зелени, и я его все равно досмотрел (как правило, если фильм совсем не заходит с начала, то я его не смотрю).

Поэтому максимум на один раз, для тех, кто пересмотрел уже в принципе всё.

Информация
Посетители, находящиеся в группе Гости, не могут оставлять комментарии к данной публикации.
Самый популярный релиз недели
BDRip 1080p 9.87 Gb ...

Кино копилка
...
Какую тему вы используете?

Реклама
Последние комментарии
...

bere

Сегодня, 12:40

...

Chilly

Сегодня, 12:17

...

Desol

Вчера, 15:18

...

ArchieBlake

Вчера, 07:46

...

павел

Вчера, 05:13

Реклама