+1

Беги и стреляй / The Ray / Run & Gun (2022) UHD WEB-DL-HEVC 2160p от селезень | 4K | SDR | D

Информация о фильме
Название: Беги и стреляй
Оригинальное название: The Ray
Год выхода: 2022
Жанр: боевик, триллер
Режиссер: Кристофер Боррелли
В ролях: Анджела Сарафян, Марк Дакаскос, Ричард Кайнд, Джанел Пэрриш, Брэд Уильям Хенке, Хадсон Янг, Элисон Торнтон, Энджел Розарио мл., Селестин Кориэль, Мишель Джубили Гонсалес

О фильме: Оставив в прошлом жизнь, полную преступлений и насилия, Рэй остепенился и стал примерным семьянином, живущим в тихом пригороде. Но когда всплывает правда о его прошлом, Рэя шантажом вынуждают провернуть еще одно, последнее, дело - забрать посылку с неизвестным содержимым. В результате смертельно опасной двойной игры раненый Рэй скрывается от безжалостных убийц, которые ни перед чем не остановятся, лишь бы отобрать у него сверток. Жизнь его близких висит на волоске, и Рэю только и остается, что уповать на свое криминальное прошлое в надежде выжить.

Страна: США
Студия: Branch Out Productions, Glass Horse Films
Продолжительность: 01:35:37
Перевод: Дублированный

Качество: WEB-DL 2160p
Видео: 3840x1600 at 23.976 fps, MPEG-H HEVC SDR ~ 20600 kbps avg
Аудио #01: 48 kHz, AC3, 5.1, 384 Kbps | Дублированный | RUS |Беги и стреляй / The Ray / Run & Gun (2022) UHD WEB-DL-HEVC 2160p от селезень | 4K | SDR | D
Аудио #02: 48 kHz, AC3, 5.1, 384 Kbps | Оригинал | ENG |
Субтитры: Русские (Forced, full), английские

Беги и стреляй / The Ray / Run & Gun (2022) UHD WEB-DL-HEVC 2160p от селезень | 4K | SDR | D

Авторизуйтесь для получения доступа к скачиванию

Нет аккаунта? Регистрация открыта и займёт меньше минуты

Вход Регистрация

General
Unique ID : 137544881964959373337363195245124744717 (0x677A2E4186BCFBB6A849F3716A89760D)
Complete name : F:\Video\Run.Gun.2021.WEB-DL.2160p.SDR.seleZen.mkv
Format : Matroska
Format version : Version 4
File size : 14.2 GiB
Duration : 1 h 35 min
Overall bit rate : 21.3 Mb/s
Movie name : The Ray 2022 seleZen
Encoded date : UTC 2022-08-18 09:46:17
Writing application : mkvmerge v59.0.0 ('Shining Star') 64-bit
Writing library : libebml v1.4.2 + libmatroska v1.6.4

Video
ID : 1
Format : HEVC
Format/Info : High Efficiency Video Coding
Format profile : Main [email protected]@High
Codec ID : V_MPEGH/ISO/HEVC
Duration : 1 h 35 min
Bit rate : 20.6 Mb/s
Width : 3 840 pixels
Height : 1 600 pixels
Display aspect ratio : 2.40:1
Frame rate mode : Constant
Frame rate : 23.976 FPS
Color space : YUV
Chroma subsampling : 4:2:0
Bit depth : 10 bits
Bits/(Pixel*Frame) : 0.140
Stream size : 13.7 GiB (96%)
Language : English
Default : Yes
Forced : No
Color range : Limited
Color primaries : BT.709
Transfer characteristics : BT.709
Matrix coefficients : BT.709

Audio #1
ID : 2
Format : AC-3
Format/Info : Audio Coding 3
Commercial name : Dolby Digital
Codec ID : A_AC3
Duration : 1 h 35 min
Bit rate mode : Constant
Bit rate : 384 kb/s
Channel(s) : 6 channels
Channel layout : L R C LFE Ls Rs
Sampling rate : 48.0 kHz
Frame rate : 31.250 FPS (1536 SPF)
Compression mode : Lossy
Stream size : 263 MiB (2%)
Title : Dub
Language : Russian
Service kind : Complete Main
Default : Yes
Forced : Yes

Audio #2
ID : 3
Format : AC-3
Format/Info : Audio Coding 3
Commercial name : Dolby Digital
Codec ID : A_AC3
Duration : 1 h 35 min
Bit rate mode : Constant
Bit rate : 384 kb/s
Channel(s) : 6 channels
Channel layout : L R C LFE Ls Rs
Sampling rate : 48.0 kHz
Frame rate : 31.250 FPS (1536 SPF)
Compression mode : Lossy
Stream size : 263 MiB (2%)
Title : Original
Language : English
Service kind : Complete Main
Default : No
Forced : No

Text #1
ID : 4
Format : UTF-8
Codec ID : S_TEXT/UTF8
Codec ID/Info : UTF-8 Plain Text
Duration : 1 h 34 min
Bit rate : 1 b/s
Frame rate : 0.004 FPS
Count of elements : 23
Stream size : 1.02 KiB (0%)
Title : Forced
Language : Russian
Default : Yes
Forced : Yes

Text #2
ID : 5
Format : UTF-8
Codec ID : S_TEXT/UTF8
Codec ID/Info : UTF-8 Plain Text
Duration : 1 h 34 min
Bit rate : 69 b/s
Frame rate : 0.185 FPS
Count of elements : 1050
Stream size : 48.0 KiB (0%)
Title : Full
Language : Russian
Default : No
Forced : No

Text #3
ID : 6
Format : UTF-8
Codec ID : S_TEXT/UTF8
Codec ID/Info : UTF-8 Plain Text
Duration : 43 s 335 ms
Bit rate : 45 b/s
Frame rate : 0.162 FPS
Count of elements : 7
Stream size : 249 Bytes (0%)
Title : Forced
Language : English
Default : No
Forced : No

Text #4
ID : 7
Format : UTF-8
Codec ID : S_TEXT/UTF8
Codec ID/Info : UTF-8 Plain Text
Duration : 1 h 31 min
Bit rate : 53 b/s
Frame rate : 0.230 FPS
Count of elements : 1263
Stream size : 36.2 KiB (0%)
Title : SDH
Language : English
Default : No
Forced : No

Menu
00:00:00.000 : Chapter 01
00:07:06.509 : Chapter 02
00:15:06.281 : Chapter 03
00:21:01.261 : Chapter 04
00:27:35.238 : Chapter 05
00:34:58.139 : Chapter 06
00:39:27.033 : Chapter 07
00:47:04.324 : Chapter 08
00:53:07.020 : Chapter 09
00:59:18.016 : Chapter 10
01:04:44.509 : Chapter 11
01:11:09.728 : Chapter 12
01:18:06.102 : Chapter 13
01:24:26.775 : Chapter 14
01:29:22.696 : Chapter 15

Другие фильмы
У данной публикации пока нет комментариев.
Будь первым, оставь своё мнение в комментариях!
Информация
Посетители, находящиеся в группе Гости, не могут оставлять комментарии к данной публикации.
Самый популярный релиз недели
BDRip 1080p 9.87 Gb ...

Кино копилка
...
Какую тему вы используете?

Реклама
Последние комментарии
...

Robot

Сегодня, 18:53

...

bere

Сегодня, 12:40

...

Chilly

Сегодня, 12:17

...

Desol

Вчера, 15:18

...

ArchieBlake

Вчера, 07:46

Реклама