+1

Память / Memoria (2021) BDRemux 1080p от селезень | P | Кинопоиск HD

Информация о фильме
Название: Память
Оригинальное название: Memoria
Год выхода: 2021
Жанр: фантастика, драма
Режиссер: Апитчатпон Вирасетакул
В ролях: Тильда Суинтон, Агнес Брекке, Даниэль Хименес Качо, Жеронимо Барон, Хуан Пабло Уррего, Жанна Балибар, Айда Моралес, Констанца Гутьеррез, Элькин Диас, Дэниэл Торо

О фильме: Джессика, специалист по выращиванию орхидей, приезжает в Колумбию, чтобы ухаживать за сестрой, находящейся в состоянии сна. Но и сама Джессика практически теряет покой - ее преследует странный звук, похожий то ли на взрыв, то ли на мощный удар, который тревожит и лишает сна. Пытаясь понять его происхождение, героиня все больше теряет связь с тем, что принято считать реальностью.

Страна: Колумбия, Таиланд, Франция, Германия, Мексика, Катар, Великобритания, Китай, Швейцария
Студия: 185 Films, Anna Sanders Films, Beijing Contemporary Art foundation, Bord Cadre Films, Burning Blue, Centre National de la Cinématographie (CNC), Doha Film Institute, Eficine, Hubert Bals Fund, Illuminations Films, Kick the Machine, L'Aide aux Cinémas du Monde, Labodigital, Louverture Films, Match Factory, The, Medienboard Berlin-Brandenburg, Ministère des Affaires Étrangères, Piano, Proimágenes Colombia, Purin Foundation, Rediance, Sovereign Films (II), Xstream Pictures, ZDF/Arte
Продолжительность: 02:15:48
Перевод: Профессиональный многоголосый | Кинопоиск HD

Качество: BDRemux 1080p
Видео: MPEG-4 AVC, 1920x1080, 27.0 Mbit/s, 24.000 fps
Аудио #01: 48 kHz, AC3, 5.1, 448 Kbps | Профессиональный многоголосый | Кинопоиск HD | RUS |Память / Memoria (2021) BDRemux 1080p от селезень | P | Кинопоиск HD
Аудио #02: 48 kHz, E-AC3, 5.1, 448 Kbps | Профессиональный многоголосый | Кинопоиск HD | RUS |
Аудио #03: 48 kHz, DTS-HD MA, 5.1, 1916 Kbps | Оригинал | ENG |
Субтитры: Русские (Full), английские

Память / Memoria (2021) BDRemux 1080p от селезень | P | Кинопоиск HD

Авторизуйтесь для получения доступа к скачиванию

Нет аккаунта? Регистрация открыта и займёт меньше минуты

Вход Регистрация

General
Unique ID : 128042791643796183980082020620005823215 (0x605425085ED305541D14E7CBC2E452EF)
Complete name : F:\Video\Memoria.2021.BDREMUX.1080p.seleZen.mkv
Format : Matroska
Format version : Version 4
File size : 28.3 GiB
Duration : 2 h 15 min
Overall bit rate mode : Variable
Overall bit rate : 29.8 Mb/s
Movie name : Memoria 2021 from seleZen
Encoded date : UTC 2022-08-16 12:00:37
Writing application : mkvmerge v59.0.0 ('Shining Star') 64-bit
Writing library : libebml v1.4.2 + libmatroska v1.6.4

Video
ID : 1
Format : AVC
Format/Info : Advanced Video Codec
Format profile : [email protected]
Format settings : CABAC / 4 Ref Frames
Format settings, CABAC : Yes
Format settings, Reference : 4 frames
Codec ID : V_MPEG4/ISO/AVC
Duration : 2 h 15 min
Bit rate mode : Variable
Bit rate : 27.0 Mb/s
Maximum bit rate : 35.0 Mb/s
Width : 1 920 pixels
Height : 1 080 pixels
Display aspect ratio : 16:9
Frame rate mode : Constant
Frame rate : 24.000 FPS
Standard : NTSC
Color space : YUV
Chroma subsampling : 4:2:0
Bit depth : 8 bits
Scan type : Progressive
Bits/(Pixel*Frame) : 0.543
Stream size : 25.6 GiB (91%)
Language : English
Default : Yes
Forced : No
Color range : Limited
Color primaries : BT.709
Transfer characteristics : BT.709
Matrix coefficients : BT.709

Audio #1
ID : 2
Format : AC-3
Format/Info : Audio Coding 3
Commercial name : Dolby Digital
Codec ID : A_AC3
Duration : 2 h 15 min
Bit rate mode : Constant
Bit rate : 448 kb/s
Channel(s) : 6 channels
Channel layout : L R C LFE Ls Rs
Sampling rate : 48.0 kHz
Frame rate : 31.250 FPS (1536 SPF)
Compression mode : Lossy
Stream size : 435 MiB (2%)
Title : MVO [Kinopoisk HD]
Language : Russian
Service kind : Complete Main
Default : Yes
Forced : Yes

Audio #2
ID : 3
Format : E-AC-3
Format/Info : Enhanced AC-3
Commercial name : Dolby Digital Plus
Codec ID : A_EAC3
Duration : 2 h 15 min
Bit rate mode : Constant
Bit rate : 448 kb/s
Channel(s) : 6 channels
Channel layout : L R C LFE Ls Rs
Sampling rate : 48.0 kHz
Frame rate : 31.250 FPS (1536 SPF)
Compression mode : Lossy
Stream size : 435 MiB (2%)
Title : MVO [Kinopoisk HD]
Language : Russian
Service kind : Complete Main
Default : No
Forced : No

Audio #3
ID : 4
Format : DTS XLL
Format/Info : Digital Theater Systems
Commercial name : DTS-HD Master Audio
Codec ID : A_DTS
Duration : 2 h 15 min
Bit rate mode : Variable
Bit rate : 1 916 kb/s
Channel(s) : 6 channels
Channel layout : C L R Ls Rs LFE
Sampling rate : 48.0 kHz
Frame rate : 93.750 FPS (512 SPF)
Bit depth : 16 bits
Compression mode : Lossless
Stream size : 1.82 GiB (6%)
Title : Original
Language : English
Default : No
Forced : No

Text #1
ID : 5
Format : UTF-8
Codec ID : S_TEXT/UTF8
Codec ID/Info : UTF-8 Plain Text
Duration : 1 h 55 min
Bit rate : 32 b/s
Frame rate : 0.081 FPS
Count of elements : 564
Stream size : 27.4 KiB (0%)
Title : Full
Language : Russian
Default : No
Forced : No

Text #2
ID : 6
Format : UTF-8
Codec ID : S_TEXT/UTF8
Codec ID/Info : UTF-8 Plain Text
Duration : 1 h 55 min
Bit rate : 20 b/s
Frame rate : 0.096 FPS
Count of elements : 665
Stream size : 17.2 KiB (0%)
Title : Full
Language : English
Default : No
Forced : No

Menu
00:00:00.000 : Глава 01
00:18:14.167 : Глава 02
00:40:20.000 : Глава 03
01:04:23.500 : Глава 04
01:32:54.125 : Глава 05
01:55:58.708 : Глава 06
02:07:55.917 : Глава 07

Другие фильмы
У данной публикации пока нет комментариев.
Будь первым, оставь своё мнение в комментариях!
Информация
Посетители, находящиеся в группе Гости, не могут оставлять комментарии к данной публикации.
Самый популярный релиз недели
2.5 Gb ...

Кино копилка
...
Какую тему вы используете?

Реклама
Последние комментарии
...

bolonka123

Вчера, 18:48

...

Desol

Вчера, 17:34

...

bolonka123

Вчера, 14:50

...

Hargs

4 октября 2022 21:24

...

Robot

4 октября 2022 11:12