+3

Понедельник / Monday (2020) BDRip-AVC от DoMiNo & селезень | D

Информация о фильме
Название: Понедельник
Оригинальное название: Monday
Год выхода: 2020
Жанр: Драма, мелодрама
Режиссер: Аргирис Пападимитропулос
В ролях: Себастьян Стэн, Доминик Типпер, Денис Гоф, Элли Тринжу, Вангелис Мурикис, Силлас Цумеркас, Андреас Константину, Александрос Логотетис, Марисса Триандафиллиду, София Коккали

О фильме:
История Мики и Хлои — двух американцев, живущих в Афинах. Однажды в разгар лета они встречаются и влюбляются друг в друга. Когда время Хлои в Греции подходит к концу, она решает проверить, может ли страсть, зародившаяся в один бурный уикенд, пережить испытание неизбежным понедельником.

Страна: США, Великобритания, Греция
Студия: Automatik Entertainment, Blonde Audiovisual Productions, Cosmote TV, DJ Films, Faliro House Productions
Продолжительность: 01:56:48
Перевод: Дублированный | Лицензия
Субтитры: Русские (Forced, full), украинские (Full), английские

Файл
Формат: Matroska
Качество: BDRip-AVC
Видео: 1048×476 at 23.976 fps, [email protected], ~2369 kbps
Аудио 1: AC3, 6 ch, ~384 kbps — | Русский | Понедельник / Monday (2020) BDRip-AVC от DoMiNo & селезень | D
Аудио 2: AC3, 6 ch, ~448 kbps — | Английский |
Формат субтитров: softsub (SRT)

Понедельник / Monday (2020) BDRip-AVC от DoMiNo & селезень | D

Авторизуйтесь для получения доступа к скачиванию

Нет аккаунта? Регистрация открыта и займёт меньше минуты

Вход Регистрация

x264 [info]: frame I:910 Avg QP:16.82 size: 60017
x264 [info]: frame P:39210 Avg QP:18.73 size: 24899
x264 [info]: frame B:127924 Avg QP:20.04 size: 8169
x264 [info]: consecutive B-frames: 2,1% 3,1% 11,9% 26,7% 18,3% 30,0% 3,0% 1,4% 0,6% 0,3% 0,4% 0,9% 0,2%

General
Unique ID : 122549008642017853329292182950244965952 (0×5C32149E42AE9C3210CF89F2CA6ADE40)
Complete name : D:Monday.2020.BDRip.x264.seleZen.mkv
Format : Matroska
Format version : Version 4
File size : 2.61 GiB
Duration : 1 h 56 min
Overall bit rate : 3 201 kb/s
Movie name : Monday.2020.BDRip.x264.seleZen
Encoded date : UTC 13.08.2022 14:01:13
Writing application : mkvmerge v63.0.0 ('Everything') 64-bit
Writing library : libebml v1.4.2 + libmatroska v1.6.4
Cover : Yes
Attachments : cover.jpg / small_cover.jpg

Video
ID : 1
Format : AVC
Format/Info : Advanced Video Codec
Format profile : [email protected]
Format settings : CABAC / 12 Ref Frames
Format settings, CABAC : Yes
Format settings, Reference : 12 frames
Codec ID : V_MPEG4/ISO/AVC
Duration : 1 h 56 min
Bit rate : 2 369 kb/s
Width : 1 048 pixels
Height : 476 pixels
Display aspect ratio : 2.2:1
Frame rate mode : Constant
Frame rate : 23.976 (24000/1001) FPS
Color space : YUV
Chroma subsampling : 4:2:0
Bit depth : 8 bits
Scan type : Progressive
Bits/(Pixel*Frame) : 0.198
Stream size : 1.93 GiB (74%)
Title : -=DoMiNo=-
Writing library : x264 core 164 by -=DoMiNo=-
Encoding settings : cabac=1 / ref=12 / deblock=1:-3:-3 / analyse=0×3:0×133 / me=umh / subme=11 / psy=1 / psy_rd=1.02:0.02 / mixed_ref=1 / me_range=32 / chroma_me=1 / trellis=2 / 8×8dct=1 / cqm=0 / deadzone=21,11 / fast_pskip=0 / chroma_qp_offset=-3 / threads=17 / lookahead_threads=3 / sliced_threads=0 / nr=0 / decimate=0 / interlaced=0 / bluray_compat=0 / constrained_intra=0 / bframes=12 / b_pyramid=2 / b_adapt=2 / b_bias=0 / direct=1 / weightb=1 / open_gop=0 / weightp=2 / keyint=250 / keyint_min=23 / scenecut=40 / intra_refresh=0 / rc_lookahead=60 / rc=crf / mbtree=0 / crf=18.5 / qcomp=0.65 / qpmin=0 / qpmax=69 / qpstep=4 / vbv_maxrate=50000 / vbv_bufsize=62500 / crf_max=0.0 / nal_hrd=none / filler=0 / ip_ratio=1.30 / pb_ratio=1.25 / aq=3:0.80
Language : English
Default : Yes
Forced : No
Color range : Limited
Color primaries : BT.709
Transfer characteristics : BT.709
Matrix coefficients : BT.709

Audio #1
ID : 2
Format : AC-3
Format/Info : Audio Coding 3
Commercial name : Dolby Digital
Codec ID : A_AC3
Duration : 1 h 56 min
Bit rate mode : Constant
Bit rate : 384 kb/s
Channel (s) : 6 channels
Channel layout : L R C LFE Ls Rs
Sampling rate : 48.0 kHz
Frame rate : 31.250 FPS (1536 SPF)
Compression mode : Lossy
Stream size : 321 MiB (12%)
Title : Dub
Language : Russian
Service kind : Complete Main
Default : Yes
Forced : Yes

Audio #2
ID : 3
Format : AC-3
Format/Info : Audio Coding 3
Commercial name : Dolby Digital
Codec ID : A_AC3
Duration : 1 h 56 min
Bit rate mode : Constant
Bit rate : 448 kb/s
Channel (s) : 6 channels
Channel layout : L R C LFE Ls Rs
Sampling rate : 48.0 kHz
Frame rate : 31.250 FPS (1536 SPF)
Compression mode : Lossy
Stream size : 374 MiB (14%)
Title : Original
Language : English
Service kind : Complete Main
Default : No
Forced : No

Text #1
ID : 4
Format : UTF-8
Codec ID : S_TEXT/UTF8
Codec ID/Info : UTF-8 Plain Text
Duration : 1 h 54 min
Bit rate : 4 b/s
Count of elements : 76
Stream size : 3.78 KiB (0%)
Title : Forced
Language : Russian
Default : Yes
Forced : No

Text #2
ID : 5
Format : UTF-8
Codec ID : S_TEXT/UTF8
Codec ID/Info : UTF-8 Plain Text
Duration : 1 h 56 min
Bit rate : 96 b/s
Count of elements : 1801
Stream size : 82.2 KiB (0%)
Title : Full
Language : Russian
Default : No
Forced : No

Text #3
ID : 6
Format : UTF-8
Codec ID : S_TEXT/UTF8
Codec ID/Info : UTF-8 Plain Text
Duration : 1 h 56 min
Bit rate : 91 b/s
Count of elements : 1806
Stream size : 77.9 KiB (0%)
Title : Full
Language : Ukrainian
Default : No
Forced : No

Text #4
ID : 7
Format : UTF-8
Codec ID : S_TEXT/UTF8
Codec ID/Info : UTF-8 Plain Text
Duration : 1 h 54 min
Bit rate : 65 b/s
Count of elements : 2139
Stream size : 55.0 KiB (0%)
Title : SDH
Language : English
Default : No
Forced : No

Menu
00:00:00.000 : en:Chapter 01
00:15:31.680 : en:Chapter 02
00:30:07.722 : en:Chapter 03
00:45:52.040 : en:Chapter 04
00:59:00.787 : en:Chapter 05
01:14:57.075 : en:Chapter 06
01:31:04.000 : en:Chapter 07
01:52:17.522 : en:Chapter 08

Другие фильмы
У данной публикации пока нет комментариев.
Будь первым, оставь своё мнение в комментариях!
Информация
Посетители, находящиеся в группе Гости, не могут оставлять комментарии к данной публикации.
Самый популярный релиз недели
2.5 Gb ...

Кино копилка
...
Какую тему вы используете?

Реклама
Последние комментарии
...

bolonka123

Вчера, 18:48

...

Desol

Вчера, 17:34

...

bolonka123

Вчера, 14:50

...

Hargs

4 октября 2022 21:24

...

Robot

4 октября 2022 11:12