+1

Ночные налётчики / Night Raiders (2021) BDRemux 1080i от селезень | iTunes

Информация о фильме
Название: Ночные налётчики
Оригинальное название: Night Raiders
Год выхода: 2021
Жанр: фантастика, боевик, триллер
Режиссер: Данис Гуле
В ролях: Эль-Майя Тэйлфизерс, Бруклин Летексье-Харт, Алекс Таррант, Аманда Пламмер, Шон Сайпос, Вайолет Нельсон, Гэйл Морис, Сюзанн Кир, Памела Мэтьюз, Скотт Баркер

О фильме: Недалёкое будущее. Женщина вынуждена вступить в подпольную банду, чтобы спасти свою дочь, находящуюся в заложниках в одном из государственных учреждений.

Страна: Канада, Новая Зеландия
Студия: Alcina Pictures, Eagle Vision Inc., Miss Conception Films, Uno Bravo
Продолжительность: 01:37:01
Перевод: Дублированный | iTunes

Качество: BDRemux 1080i
Видео: MPEG-4 AVC, 1920x1080, 24.8 Mbit/s, 25.000 fps
Аудио #01: 48 kHz, AC3, 5.1, 384 Kbps | iTunes | RUS |Ночные налётчики / Night Raiders (2021) BDRemux 1080i от селезень | iTunes
Аудио #02: 48 kHz, DTS-HD MA, 5.1, 2026 Kbps | Оригинал | ENG |
Субтитры: Русские (Forced, full), английские

Ночные налётчики / Night Raiders (2021) BDRemux 1080i от селезень | iTunes

Авторизуйтесь для получения доступа к скачиванию

Нет аккаунта? Регистрация открыта и займёт меньше минуты

Вход Регистрация

General
Unique ID : 268118610176939619057525212737270312188 (0xC9B5C4187E135A9CCAC502AAC9A5ECFC)
Complete name : D:\Night.Raiders.2021.BDREMUX.1080i.seleZen.mkv
Format : Matroska
Format version : Version 4
File size : 18.4 GiB
Duration : 1 h 37 min
Overall bit rate mode : Variable
Overall bit rate : 27.2 Mb/s
Movie name : Night Raiders 2021 from seleZen
Encoded date : UTC 2022-08-12 22:39:48
Writing application : mkvmerge v59.0.0 ('Shining Star') 64-bit
Writing library : libebml v1.4.2 + libmatroska v1.6.4

Video
ID : 1
Format : AVC
Format/Info : Advanced Video Codec
Format profile : [email protected]
Format settings : CABAC / 4 Ref Frames
Format settings, CABAC : Yes
Format settings, Reference : 4 frames
Format settings, GOP : M=3, N=24
Codec ID : V_MPEG4/ISO/AVC
Duration : 1 h 37 min
Bit rate mode : Variable
Bit rate : 24.8 Mb/s
Maximum bit rate : 35.0 Mb/s
Width : 1 920 pixels
Height : 1 080 pixels
Display aspect ratio : 16:9
Frame rate mode : Constant
Frame rate : 25.000 FPS
Standard : PAL
Color space : YUV
Chroma subsampling : 4:2:0
Bit depth : 8 bits
Scan type : MBAFF
Scan type, store method : Interleaved fields
Scan order : Top Field First
Bits/(Pixel*Frame) : 0.478
Stream size : 16.8 GiB (91%)
Default : Yes
Forced : No
Color range : Limited
Color primaries : BT.709
Transfer characteristics : BT.709
Matrix coefficients : BT.709

Audio #1
ID : 2
Format : AC-3
Format/Info : Audio Coding 3
Commercial name : Dolby Digital
Codec ID : A_AC3
Duration : 1 h 36 min
Bit rate mode : Constant
Bit rate : 384 kb/s
Channel(s) : 6 channels
Channel layout : L R C LFE Ls Rs
Sampling rate : 48.0 kHz
Frame rate : 31.250 FPS (1536 SPF)
Compression mode : Lossy
Stream size : 266 MiB (1%)
Title : iTunes
Language : Russian
Service kind : Complete Main
Default : Yes
Forced : Yes

Audio #2
ID : 3
Format : DTS XLL
Format/Info : Digital Theater Systems
Commercial name : DTS-HD Master Audio
Codec ID : A_DTS
Duration : 1 h 37 min
Bit rate mode : Variable
Bit rate : 2 026 kb/s
Channel(s) : 6 channels
Channel layout : C L R Ls Rs LFE
Sampling rate : 48.0 kHz
Frame rate : 93.750 FPS (512 SPF)
Bit depth : 16 bits
Compression mode : Lossless
Stream size : 1.37 GiB (7%)
Title : Original
Language : English
Default : No
Forced : No

Text #1
ID : 4
Format : UTF-8
Codec ID : S_TEXT/UTF8
Codec ID/Info : UTF-8 Plain Text
Duration : 1 h 30 min
Bit rate : 4 b/s
Frame rate : 0.009 FPS
Count of elements : 51
Stream size : 3.14 KiB (0%)
Title : Forced
Language : Russian
Default : Yes
Forced : Yes

Text #2
ID : 5
Format : UTF-8
Codec ID : S_TEXT/UTF8
Codec ID/Info : UTF-8 Plain Text
Duration : 1 h 30 min
Bit rate : 48 b/s
Frame rate : 0.157 FPS
Count of elements : 851
Stream size : 32.4 KiB (0%)
Title : Full
Language : Russian
Default : No
Forced : No

Text #3
ID : 6
Format : UTF-8
Codec ID : S_TEXT/UTF8
Codec ID/Info : UTF-8 Plain Text
Duration : 1 h 34 min
Bit rate : 44 b/s
Frame rate : 0.165 FPS
Count of elements : 934
Stream size : 30.8 KiB (0%)
Title : SDH
Language : English
Default : No
Forced : No

Menu
00:00:00.000 : Глава 01
00:07:27.120 : Глава 02
00:15:09.000 : Глава 03
00:25:09.840 : Глава 04
00:34:03.360 : Глава 05
00:40:38.640 : Глава 06
00:46:56.440 : Глава 07
00:51:54.280 : Глава 08
00:58:40.560 : Глава 09
01:06:52.160 : Глава 10
01:14:54.680 : Глава 11
01:22:49.040 : Глава 12

Другие фильмы
У данной публикации пока нет комментариев.
Будь первым, оставь своё мнение в комментариях!
Информация
Посетители, находящиеся в группе Гости, не могут оставлять комментарии к данной публикации.
Самый популярный релиз недели
2.5 Gb ...

Кино копилка
...
Какую тему вы используете?

Реклама
Последние комментарии
...

bolonka123

Вчера, 18:48

...

Desol

Вчера, 17:34

...

bolonka123

Вчера, 14:50

...

Hargs

4 октября 2022 21:24

...

Robot

4 октября 2022 11:12