+3

Заговор в Голливуде / Gasoline Alley (2022) BDRemux 1080p от селезень | D

Информация о фильме
Название: Заговор в Голливуде
Оригинальное название: Gasoline Alley
Год выхода: 2022
Жанр: боевик, триллер
Режиссер: Эдвард Дрэйк
В ролях: Брюс Уиллис, Люк Уилсон, Девон Сава, Кэт Фостер, Суфе Брэдшоу, Вернон Дэвис, Билли Джек Харлоу, Кенни Вормолд, Джейк Олстон, Mike Dargatis

О фильме: Человек, вовлеченный в тройное убийство голливудских звезд, начинает собственное расследование. Нуждаясь в помощи, он нанимает двух детективов, чтобы разоблачить заговор, уровень опасности которого они и представить себе не могли.

Страна: США
Студия: 308 Ent, BondIt, Buffalo 8 Productions, Head Gear Films, Highland Film Group (HFG), Kreo Films FZ, Lost Winds Entertainment, Metrol Technology, Yale Productions
Продолжительность: 01:37:10
Перевод: Дублированный | iTunes

Качество: BDRemux 1080p
Видео: MPEG-4 AVC, 1920x1080, 27.0 Mbit/s, 23.976 fps
Аудио #01: 48 kHz, AC3, 5.1, 384 Kbps | iTunes | RUS |Заговор в Голливуде / Gasoline Alley (2022) BDRemux 1080p от селезень | D
Аудио #02: 48 kHz, DTS-HD MA, 5.1, 1803 Kbps | Оригинал | ENG |
Субтитры: Английские

Заговор в Голливуде / Gasoline Alley (2022) BDRemux 1080p от селезень | D

Авторизуйтесь для получения доступа к скачиванию

Нет аккаунта? Регистрация открыта и займёт меньше минуты

Вход Регистрация

General
Unique ID : 3798619983525992508335147658036151418 (0x2DB966CC7DD33CF0E21333A8BFC847A)
Complete name : D:\Gasoline.Alley.2022.BDREMUX.1080p.seleZen.mkv
Format : Matroska
Format version : Version 4
File size : 19.8 GiB
Duration : 1 h 37 min
Overall bit rate mode : Variable
Overall bit rate : 29.2 Mb/s
Movie name : Gasoline Alley 2022 from seleZen
Encoded date : UTC 2022-08-12 04:46:22
Writing application : mkvmerge v59.0.0 ('Shining Star') 64-bit
Writing library : libebml v1.4.2 + libmatroska v1.6.4

Video
ID : 1
ID in the original source m : 4113 (0x1011)
Format : AVC
Format/Info : Advanced Video Codec
Format profile : [email protected]
Format settings : CABAC / 3 Ref Frames
Format settings, CABAC : Yes
Format settings, Reference : 3 frames
Codec ID : V_MPEG4/ISO/AVC
Duration : 1 h 37 min
Bit rate mode : Variable
Bit rate : 27.0 Mb/s
Maximum bit rate : 35.0 Mb/s
Width : 1 920 pixels
Height : 1 080 pixels
Display aspect ratio : 16:9
Frame rate mode : Constant
Frame rate : 23.976 (24000/1001) FPS
Standard : NTSC
Color space : YUV
Chroma subsampling : 4:2:0
Bit depth : 8 bits
Scan type : Progressive
Bits/(Pixel*Frame) : 0.543
Stream size : 18.3 GiB (92%)
Language : English
Default : No
Forced : No
Color range : Limited
Color primaries : BT.709
Transfer characteristics : BT.709
Matrix coefficients : BT.709
Original source medium : Blu-ray

Audio #1
ID : 2
Format : AC-3
Format/Info : Audio Coding 3
Commercial name : Dolby Digital
Codec ID : A_AC3
Duration : 1 h 37 min
Bit rate mode : Constant
Bit rate : 384 kb/s
Channel(s) : 6 channels
Channel layout : L R C LFE Ls Rs
Sampling rate : 48.0 kHz
Frame rate : 31.250 FPS (1536 SPF)
Compression mode : Lossy
Stream size : 267 MiB (1%)
Title : iTunes
Language : Russian
Service kind : Complete Main
Default : Yes
Forced : Yes

Audio #2
ID : 3
ID in the original source m : 4352 (0x1100)
Format : DTS XLL
Format/Info : Digital Theater Systems
Commercial name : DTS-HD Master Audio
Codec ID : A_DTS
Duration : 1 h 37 min
Bit rate mode : Variable
Bit rate : 1 803 kb/s
Channel(s) : 6 channels
Channel layout : C L R Ls Rs LFE
Sampling rate : 48.0 kHz
Frame rate : 93.750 FPS (512 SPF)
Bit depth : 16 bits
Compression mode : Lossless
Stream size : 1.22 GiB (6%)
Title : Original
Language : English
Default : No
Forced : No
Original source medium : Blu-ray

Text
ID : 4
Format : UTF-8
Codec ID : S_TEXT/UTF8
Codec ID/Info : UTF-8 Plain Text
Duration : 1 h 31 min
Bit rate : 51 b/s
Frame rate : 0.229 FPS
Count of elements : 1253
Stream size : 34.6 KiB (0%)
Title : Full
Language : English
Default : No
Forced : No

Menu
00:00:00.000 : Chapter 01
00:15:07.489 : Chapter 02
00:25:28.902 : Chapter 03
00:36:04.203 : Chapter 04
00:50:58.847 : Chapter 05
01:03:22.507 : Chapter 06
01:15:41.828 : Chapter 07
01:35:30.808 : Chapter 08

Другие фильмы
У данной публикации пока нет комментариев.
Будь первым, оставь своё мнение в комментариях!
Информация
Посетители, находящиеся в группе Гости, не могут оставлять комментарии к данной публикации.
Самый популярный релиз недели
2.5 Gb ...

Кино копилка
...
Какую тему вы используете?

Реклама
Последние комментарии
...

bolonka123

Вчера, 18:48

...

Desol

Вчера, 17:34

...

bolonka123

Вчера, 14:50

...

Hargs

4 октября 2022 21:24

...

Robot

4 октября 2022 11:12