+5

Морской монстр / The Sea Beast (2022) WEB-DLRip-AVC от DoMiNo & селезень | P

Информация о фильме
Название: Морской монстр
Оригинальное название: The Sea Beast
Год выхода: 2022
Жанр: Мультфильм, фэнтези, комедия, приключения, семейный
Режиссер: ЛазРаэль Лисон
Роли озвучивают: Карл Урбан, Дэн Стивенс, Джаред Харрис, Эмили О’Брайэн, Марианн Жан-Баптист, Кэти Бёрк, Зарис-Анжел Хатор, Барака Мэй, Сомали Роз, Бенжамин Плессала

О фильме:
Охотиться на больших морских монстров для охотника и капитана собственного корабля Джейкоба считается обыкновенным делом, связанным с относительными рисками. Только однажды на борт, где находился он и его единомышленники, попадает девочка Мэйси, которая тоже мечтает в будущем стать охотницей. Попытки от неё избавиться не проходят и необходимо взять неохотно ребенка в коллектив.

Страна: США
Студия: Netflix, Netflix Animation
Продолжительность: 01:59:26
Перевод: Профессиональный (многоголосый, закадровый) | Jaskier
Субтитры: Русские (форсированные, полные (NF)), английские (full)

Файл
Формат: Matroska
Качество: WEB-DLRip-AVC
Видео: 1024×552 at 24.000 fps, [email protected], ~2114 kbps
Аудио 1: AC3, 6 ch, ~448 kbps — | Русский | Морской монстр / The Sea Beast (2022) WEB-DLRip-AVC от DoMiNo & селезень | P
Аудио 2: AC3, 6 ch, ~448 kbps — | Английский |
Формат субтитров: softsub (SRT)

Морской монстр / The Sea Beast (2022) WEB-DLRip-AVC от DoMiNo & селезень | P

Авторизуйтесь для получения доступа к скачиванию

Нет аккаунта? Регистрация открыта и займёт меньше минуты

Вход Регистрация

x264 [info]: frame I:1568 Avg QP:18.20 size: 67199
x264 [info]: frame P:37509 Avg QP:19.05 size: 23431
x264 [info]: frame B:132898 Avg QP:21.35 size: 6844

General
Unique ID : 82544051167268520323497757500679504251 (0×3E1967EECA6DA23A3AFFE0F25075C17B)
Complete name : D:The.Sea.Beast.2022.WEB-DLRip.x264.seleZen.mkv
Format : Matroska
Format version : Version 4
File size : 2.51 GiB
Duration : 1 h 59 min
Overall bit rate : 3 013 kb/s
Movie name : The.Sea.Beast.2022.WEB-DLRip.x264.seleZen
Encoded date : UTC 11.07.2022 22:40:39
Writing application : mkvmerge v63.0.0 ('Everything') 64-bit
Writing library : libebml v1.4.2 + libmatroska v1.6.4
Cover : Yes
Attachments : cover.jpg / small_cover.jpg

Video
ID : 1
Format : AVC
Format/Info : Advanced Video Codec
Format profile : [email protected]
Format settings : CABAC / 10 Ref Frames
Format settings, CABAC : Yes
Format settings, Reference : 10 frames
Codec ID : V_MPEG4/ISO/AVC
Duration : 1 h 59 min
Bit rate : 2 114 kb/s
Width : 1 024 pixels
Height : 552 pixels
Display aspect ratio : 1.85:1
Frame rate mode : Constant
Frame rate : 24.000 FPS
Color space : YUV
Chroma subsampling : 4:2:0
Bit depth : 8 bits
Scan type : Progressive
Bits/(Pixel*Frame) : 0.156
Stream size : 1.76 GiB (70%)
Title : -=DoMiNo=-
Writing library : x264 core 164 by -=DoMiNo=-
Encoding settings : cabac=1 / ref=10 / deblock=1:-2:-2 / analyse=0×3:0×133 / me=umh / subme=10 / psy=1 / psy_rd=1.05:0.20 / mixed_ref=1 / me_range=32 / chroma_me=1 / trellis=2 / 8×8dct=1 / cqm=0 / deadzone=21,11 / fast_pskip=0 / chroma_qp_offset=-3 / threads=17 / lookahead_threads=2 / sliced_threads=0 / nr=0 / decimate=1 / interlaced=0 / bluray_compat=0 / constrained_intra=0 / bframes=9 / b_pyramid=2 / b_adapt=2 / b_bias=0 / direct=1 / weightb=1 / open_gop=0 / weightp=2 / keyint=250 / keyint_min=24 / scenecut=40 / intra_refresh=0 / rc_lookahead=60 / rc=crf / mbtree=0 / crf=20.0 / qcomp=0.65 / qpmin=0 / qpmax=69 / qpstep=4 / vbv_maxrate=50000 / vbv_bufsize=62500 / crf_max=0.0 / nal_hrd=none / filler=0 / ip_ratio=1.35 / pb_ratio=1.25 / aq=2:1.20
Language : English
Default : Yes
Forced : No
Color range : Limited
Color primaries : BT.709
Transfer characteristics : BT.709
Matrix coefficients : BT.709

Audio #1
ID : 2
Format : AC-3
Format/Info : Audio Coding 3
Commercial name : Dolby Digital
Codec ID : A_AC3
Duration : 1 h 59 min
Bit rate mode : Constant
Bit rate : 448 kb/s
Channel (s) : 6 channels
Channel layout : L R C LFE Ls Rs
Sampling rate : 48.0 kHz
Frame rate : 31.250 FPS (1536 SPF)
Compression mode : Lossy
Stream size : 383 MiB (15%)
Title : MVO_[Jaskier]
Language : Russian
Service kind : Complete Main
Default : Yes
Forced : Yes

Audio #2
ID : 3
Format : AC-3
Format/Info : Audio Coding 3
Commercial name : Dolby Digital
Codec ID : A_AC3
Duration : 1 h 59 min
Bit rate mode : Constant
Bit rate : 448 kb/s
Channel (s) : 6 channels
Channel layout : L R C LFE Ls Rs
Sampling rate : 48.0 kHz
Frame rate : 31.250 FPS (1536 SPF)
Compression mode : Lossy
Stream size : 383 MiB (15%)
Title : Original
Language : English
Service kind : Complete Main
Default : No
Forced : No

Text #1
ID : 4
Format : UTF-8
Codec ID : S_TEXT/UTF8
Codec ID/Info : UTF-8 Plain Text
Duration : 1 h 48 min
Bit rate : 4 b/s
Count of elements : 43
Stream size : 3.22 KiB (0%)
Title : Forced
Language : Russian
Default : Yes
Forced : No

Text #2
ID : 5
Format : UTF-8
Codec ID : S_TEXT/UTF8
Codec ID/Info : UTF-8 Plain Text
Duration : 1 h 54 min
Bit rate : 62 b/s
Count of elements : 1055
Stream size : 52.6 KiB (0%)
Title : Full
Language : Russian
Default : No
Forced : No

Text #3
ID : 6
Format : UTF-8
Codec ID : S_TEXT/UTF8
Codec ID/Info : UTF-8 Plain Text
Duration : 1 h 47 min
Bit rate : 40 b/s
Count of elements : 1066
Stream size : 31.8 KiB (0%)
Title : Full
Language : English
Default : No
Forced : No

Другие фильмы
Комментарии:

...
TheFoldGame 8 августа 2022 19:29
0

Добавьте пожалуйста торрент на дубляж от RHS - Red Head Sounds

Информация
Посетители, находящиеся в группе Гости, не могут оставлять комментарии к данной публикации.
Самый популярный релиз недели
2.5 Gb ...

Кино копилка
...
Какую тему вы используете?

Реклама
Последние комментарии
...

bolonka123

Вчера, 18:48

...

Desol

Вчера, 17:34

...

bolonka123

Вчера, 14:50

...

Hargs

4 октября 2022 21:24

...

Robot

4 октября 2022 11:12