+12

Доктор Стрэндж: В мультивселенной безумия / Doctor Strange in the Multiverse of Madness (2022) BDRip 1080p от селезень | D, P, A

Информация о фильме
Название: Доктор Стрэндж: В мультивселенной безумия
Оригинальное название: Doctor Strange in the Multiverse of Madness
Год выхода: 2022
Жанр: фэнтези, боевик, приключения, фантастика, ужасы
Режиссер: Сэм Рэйми
В ролях: Бенедикт Камбербэтч, Элизабет Олсен, Сочил Гомес, Бенедикт Вонг, Рэйчел МакАдамс, Чиветель Эджиофор, Патрик Стюарт, Джон Красински, Хейли Этвелл, Энсон Маунт

О фильме: Доктор Стрэндж при помощи Вонга спасает от гигантского осьминога девушку-подростка по имени Америка Чавес, которая при сильном испуге может открывать порталы в параллельные вселенные. Пытаясь уберечь новую знакомую от злой силы, жаждущей заполучить её способность, Доктор вместе с Америкой пускается в путешествие по мультивселенной.

Страна: США
Студия: Marvel Studios Inc., Truenorth Productions
Продолжительность: 02:06:31
Перевод(ы):
#1: Дублированный | Невафильм
#2: Профессиональный многоголосый | HDRezka Studio
#3: Профессиональный многоголосый | Jaskier
#4: Профессиональный многоголосый | NewComers
#4: Авторский | Д. Есарев


Качество: BDRip 1080p
Видео: MPEG-4 AVC, 1920x804, 13.5 Мbit/s, 23.976 fps
Аудио #01: 48 kHz, AC3, 5.1, 448 Kbps | Дублированный | RUS |Доктор Стрэндж: В мультивселенной безумия / Doctor Strange in the Multiverse of Madness (2022) BDRip 1080p от селезень | D, P, A
Аудио #02: 48 kHz, AC3, 5.1, 448 Kbps | Профессиональный многоголосый | HDRezka Studio | RUS |
Аудио #03: 48 kHz, AC3, 5.1, 448 Kbps | Профессиональный многоголосый | Jaskier | RUS |
Аудио #04: 48 kHz, AC3, 5.1, 384 Kbps | Профессиональный многоголосый | NewComers | RUS |
Аудио #05: 48 kHz, AC3, 5.1, 640 Kbps | Авторский | Д. Есарев | RUS |
Аудио #06: 48 kHz, AC3, 5.1, 640 Kbps | Оригинал | ENG |
Субтитры: Русские (2 x Forced, full), английские

Доктор Стрэндж: В мультивселенной безумия / Doctor Strange in the Multiverse of Madness (2022) BDRip 1080p от селезень | D, P, A

Авторизуйтесь для получения доступа к скачиванию

Нет аккаунта? Регистрация открыта и займёт меньше минуты

Вход Регистрация

General
Unique ID : 6986834574389412474170981047199968680 (0x5419D8A5A0A1B4B312FC71FD355ADA8)
Complete name : D:\Doctor.Strange.in.the.Multiverse.of.Madness.2022.BDRip.1080p.seleZen.mkv
Format : Matroska
Format version : Version 4
File size : 14.6 GiB
Duration : 2 h 6 min
Overall bit rate : 16.6 Mb/s
Movie name : Doctor Strange in the Multiverse of Madness 2022 from seleZen
Encoded date : UTC 2022-08-13 01:32:14
Writing application : mkvmerge v59.0.0 ('Shining Star') 64-bit
Writing library : libebml v1.4.2 + libmatroska v1.6.4

Video
ID : 1
Format : AVC
Format/Info : Advanced Video Codec
Format profile : [email protected]
Format settings : CABAC / 5 Ref Frames
Format settings, CABAC : Yes
Format settings, Reference : 5 frames
Codec ID : V_MPEG4/ISO/AVC
Duration : 2 h 6 min
Bit rate : 13.5 Mb/s
Width : 1 920 pixels
Height : 804 pixels
Display aspect ratio : 2.40:1
Frame rate mode : Constant
Frame rate : 23.976 (24000/1001) FPS
Color space : YUV
Chroma subsampling : 4:2:0
Bit depth : 8 bits
Scan type : Progressive
Bits/(Pixel*Frame) : 0.366
Stream size : 12.0 GiB (82%)
Writing library : x264 core 164 r3085+55M seleZen t_mod_New [(8 & 10)[email protected] X86_64]
Encoding settings : cabac=1 / ref=5 / deblock=1:-2:-2 / analyse=0x3:0x133 / me=umh / subme=10 / psy=1 / fade_compensate=0.00 / psy_rd=1.02:0.02 / mixed_ref=1 / me_range=32 / chroma_me=1 / trellis=2 / 8x8dct=1 / cqm=0 / deadzone=21,11 / fast_pskip=0 / chroma_qp_offset=-3 / threads=25 / lookahead_threads=4 / sliced_threads=0 / nr=0 / decimate=0 / interlaced=0 / bluray_compat=0 / constrained_intra=0 / fgo=0 / bframes=8 / b_pyramid=2 / b_adapt=2 / b_bias=0 / direct=3 / weightb=1 / open_gop=0 / weightp=2 / keyint=240 / keyint_min=23 / scenecut=40 / intra_refresh=0 / rc_lookahead=60 / rc=2pass / mbtree=0 / bitrate=13547 / ratetol=1.0 / qcomp=0.60 / qpmin=0:0:0 / qpmax=51:51:51 / qpstep=4 / cplxblur=20.0 / qblur=0.5 / vbv_maxrate=50000 / vbv_bufsize=62500 / nal_hrd=none / filler=0 / ip_ratio=1.40 / pb_ratio=1.30 / aq=3:0.80 / aq-sensitivity=10.00 / aq-factor=1.00:1.00:1.00 / aq2=0 / aq3=0
Language : English
Default : Yes
Forced : No

Audio #1
ID : 2
Format : AC-3
Format/Info : Audio Coding 3
Commercial name : Dolby Digital
Codec ID : A_AC3
Duration : 2 h 6 min
Bit rate mode : Constant
Bit rate : 448 kb/s
Channel(s) : 6 channels
Channel layout : L R C LFE Ls Rs
Sampling rate : 48.0 kHz
Frame rate : 31.250 FPS (1536 SPF)
Compression mode : Lossy
Stream size : 405 MiB (3%)
Title : Dub
Language : Russian
Service kind : Complete Main
Default : Yes
Forced : Yes

Audio #2
ID : 3
Format : AC-3
Format/Info : Audio Coding 3
Commercial name : Dolby Digital
Codec ID : A_AC3
Duration : 2 h 6 min
Bit rate mode : Constant
Bit rate : 448 kb/s
Channel(s) : 6 channels
Channel layout : L R C LFE Ls Rs
Sampling rate : 48.0 kHz
Frame rate : 31.250 FPS (1536 SPF)
Compression mode : Lossy
Stream size : 405 MiB (3%)
Title : MVO (HDRezka Studio)
Language : Russian
Service kind : Complete Main
Default : No
Forced : No

Audio #3
ID : 4
Format : AC-3
Format/Info : Audio Coding 3
Commercial name : Dolby Digital
Codec ID : A_AC3
Duration : 2 h 6 min
Bit rate mode : Constant
Bit rate : 448 kb/s
Channel(s) : 6 channels
Channel layout : L R C LFE Ls Rs
Sampling rate : 48.0 kHz
Frame rate : 31.250 FPS (1536 SPF)
Compression mode : Lossy
Stream size : 405 MiB (3%)
Title : MVO (Jaskier)
Language : Russian
Service kind : Complete Main
Default : No
Forced : No

Audio #4
ID : 5
Format : AC-3
Format/Info : Audio Coding 3
Commercial name : Dolby Digital
Codec ID : A_AC3
Duration : 2 h 6 min
Bit rate mode : Constant
Bit rate : 384 kb/s
Channel(s) : 6 channels
Channel layout : L R C LFE Ls Rs
Sampling rate : 48.0 kHz
Frame rate : 31.250 FPS (1536 SPF)
Compression mode : Lossy
Stream size : 348 MiB (2%)
Title : MVO (NewComers)
Language : Russian
Service kind : Complete Main
Default : No
Forced : No

Audio #5
ID : 6
Format : AC-3
Format/Info : Audio Coding 3
Commercial name : Dolby Digital
Codec ID : A_AC3
Duration : 2 h 6 min
Bit rate mode : Constant
Bit rate : 640 kb/s
Channel(s) : 6 channels
Channel layout : L R C LFE Ls Rs
Sampling rate : 48.0 kHz
Frame rate : 31.250 FPS (1536 SPF)
Compression mode : Lossy
Stream size : 579 MiB (4%)
Title : AVO [Yesarev]
Language : Russian
Service kind : Complete Main
Default : No
Forced : No

Audio #6
ID : 7
Format : AC-3
Format/Info : Audio Coding 3
Commercial name : Dolby Digital
Codec ID : A_AC3
Duration : 2 h 6 min
Bit rate mode : Constant
Bit rate : 640 kb/s
Channel(s) : 6 channels
Channel layout : L R C LFE Ls Rs
Sampling rate : 48.0 kHz
Frame rate : 31.250 FPS (1536 SPF)
Compression mode : Lossy
Stream size : 579 MiB (4%)
Title : Original
Language : English
Service kind : Complete Main
Default : No
Forced : No

Text #1
ID : 8
Format : UTF-8
Codec ID : S_TEXT/UTF8
Codec ID/Info : UTF-8 Plain Text
Duration : 2 h 4 min
Bit rate : 1 b/s
Frame rate : 0.002 FPS
Count of elements : 17
Stream size : 1.01 KiB (0%)
Title : Forced 1
Language : Russian
Default : Yes
Forced : Yes

Text #2
ID : 9
Format : UTF-8
Codec ID : S_TEXT/UTF8
Codec ID/Info : UTF-8 Plain Text
Duration : 25 min 8 s
Bit rate : 2 b/s
Frame rate : 0.007 FPS
Count of elements : 10
Stream size : 480 Bytes (0%)
Title : Forced 2
Language : Russian
Default : No
Forced : No

Text #3
ID : 10
Format : UTF-8
Codec ID : S_TEXT/UTF8
Codec ID/Info : UTF-8 Plain Text
Duration : 2 h 5 min
Bit rate : 68 b/s
Frame rate : 0.167 FPS
Count of elements : 1253
Stream size : 62.4 KiB (0%)
Title : Full
Language : Russian
Default : No
Forced : No

Text #4
ID : 11
Format : UTF-8
Codec ID : S_TEXT/UTF8
Codec ID/Info : UTF-8 Plain Text
Duration : 25 min 8 s
Bit rate : 1 b/s
Frame rate : 0.007 FPS
Count of elements : 10
Stream size : 265 Bytes (0%)
Title : Forced
Language : English
Default : No
Forced : No

Text #5
ID : 12
Format : UTF-8
Codec ID : S_TEXT/UTF8
Codec ID/Info : UTF-8 Plain Text
Duration : 55 min 41 s
Bit rate : 60 b/s
Frame rate : 0.297 FPS
Count of elements : 992
Stream size : 24.9 KiB (0%)
Title : Full
Language : English
Default : No
Forced : No

Text #6
ID : 13
Format : UTF-8
Codec ID : S_TEXT/UTF8
Codec ID/Info : UTF-8 Plain Text
Duration : 2 h 5 min
Bit rate : 36 b/s
Frame rate : 0.166 FPS
Count of elements : 1249
Stream size : 33.8 KiB (0%)
Title : SDH
Language : English
Default : No
Forced : No

Menu
00:00:00.000 : Chapter 01
00:03:51.397 : Chapter 02
00:08:26.506 : Chapter 03
00:14:19.441 : Chapter 04
00:18:23.060 : Chapter 05
00:24:37.601 : Chapter 06
00:37:58.150 : Chapter 07
00:47:15.499 : Chapter 08
00:50:03.542 : Chapter 09
00:55:51.056 : Chapter 10
00:59:46.332 : Chapter 11
01:02:19.652 : Chapter 12
01:05:18.414 : Chapter 13
01:07:20.786 : Chapter 14
01:15:03.582 : Chapter 15
01:17:01.867 : Chapter 16
01:19:18.420 : Chapter 17
01:23:29.337 : Chapter 18
01:26:34.189 : Chapter 19
01:28:51.326 : Chapter 20
01:34:47.306 : Chapter 21
01:37:38.644 : Chapter 22
01:41:27.623 : Chapter 23
01:51:03.281 : Chapter 24
01:53:26.466 : Chapter 25
01:55:38.848 : Chapter 26
01:56:32.068 : Chapter 27
01:58:48.371 : Chapter 28
01:59:26.159 : Chapter 29

Другие фильмы
Комментарии:

...
Desol 4 сентября 2022 21:20
0

dembell56, Добавили ссылки

...
Desol 4 сентября 2022 19:44
+1

dembell56, выгрузим эту раздачу в ближайшие дни на gdrive

...
Desol 4 сентября 2022 14:14
0

dembell56, мы не загружаем фильмы в облако последнее время, тем более на ядиск

...
Robot 15 июля 2022 13:03
0

bolonka123, Не нужно скромничать. relieved Ваша помощь, как и помошь абсолютно всех, кто помог и помогает нам материально, дает нам силы и возможности, продолжать действовать дальше. Всем большое спасибо за поддержку!!! Родина вас не забудет. wink

А по поводу хотелок. Любой может обратиться ко мне с просьбой о каком нибудь релизе, которого нет. На платной основе, под заказ, я смогу сделать практически любой фильм-мультфильм, который в моих силах. В любом качестве.

То, чего в природе еще нет или я не в силах найти-достать. Тут уж не обессудьте. 

...
bolonka123 15 июля 2022 10:29
0

Robot, спасибо, но выделять меня может не стоило ("не виноватая я..)", а тож ещё и дубляж и офиц.дубляж в хотелки зачешется ;) А если серьёзно, то указал про BDRemux просто, чтобы не затерялся. Всегда немного смущает, когда др.версии есть в инфо каталоге, а вот именно BDRemux 1080p пропущен, хотя тот же BDRip есть (в идеале это ж ребёнок BDRemux).. И как я заметил, сам BDRemux 1080p иногда так и не появляется)

...
Robot 14 июля 2022 23:59
0

bolonka123, для ТОП донатеров любой каприз. wink 

...
bolonka123 14 июля 2022 16:20
0

Надеюсь, что FHD BDRemux появится со временем..

Информация
Посетители, находящиеся в группе Гости, не могут оставлять комментарии к данной публикации.
Самый популярный релиз недели
2.5 Gb ...

Кино копилка
...
Какую тему вы используете?

Реклама
Последние комментарии
...

bolonka123

Вчера, 18:48

...

Desol

Вчера, 17:34

...

bolonka123

Вчера, 14:50

...

Hargs

4 октября 2022 21:24

...

Robot

4 октября 2022 11:12