+3

Отец Стю / Father Stu (2022) BDRemux 1080p от селезень | P

Информация о фильме
Название: Отец Стю
Оригинальное название: Father Stu
Год выхода: 2022
Жанр: драма, биография
Режиссер: Розалинд Росс
В ролях: Мэл Гибсон, Марк Уолберг, Джеки Уивер, Фэйт Джеффрис, Тереса Руис, Малкольм МакДауэлл, Аннет Махендру, Коди Ферн, Винтер Эйв Золи, Нико Никотера

О фильме: История жизни отца Стюарта Лонга - боксера, ставшего священником.

Страна: США
Студия: Palm Drive Productions
Продолжительность: 02:04:39
Перевод: Профессиональный многоголосый | Jaskier

Качество: BDRemux 1080p
Видео: MPEG-4 AVC, 1920x1080, 24.9 Mbit/s, 23.976 fps
Аудио #01: 48 kHz, AC3, 5.1, 384 Kbps | Профессиональный многоголосый | Jaskier | RUS |Отец Стю / Father Stu (2022) BDRemux 1080p от селезень | P
Аудио #02: 48 kHz, DTS-HD MA, 5.1, 2140 Kbps | Оригинал | ENG |
Субтитры: Английские

Отец Стю / Father Stu (2022) BDRemux 1080p от селезень | P

Авторизуйтесь для получения доступа к скачиванию

Нет аккаунта? Регистрация открыта и займёт меньше минуты

Вход Регистрация

General
Unique ID : 251510052822046809529114904443169641303 (0xBD3712FF0FE906D6FC0524F9C1819357)
Complete name : E:\Video1\Father.Stu.2022.BDREMUX.1080p.seleZen.mkv
Format : Matroska
Format version : Version 4
File size : 23.9 GiB
Duration : 2 h 4 min
Overall bit rate mode : Variable
Overall bit rate : 27.5 Mb/s
Movie name : Father Stu 2022 from seleZen
Encoded date : UTC 2022-06-06 20:58:09
Writing application : mkvmerge v59.0.0 ('Shining Star') 64-bit
Writing library : libebml v1.4.2 + libmatroska v1.6.4

Video
ID : 1
Format : AVC
Format/Info : Advanced Video Codec
Format profile : [email protected]
Format settings : CABAC / 2 Ref Frames
Format settings, CABAC : Yes
Format settings, Reference : 2 frames
Format settings, GOP : M=1, N=10
Codec ID : V_MPEG4/ISO/AVC
Duration : 2 h 4 min
Bit rate mode : Variable
Bit rate : 24.9 Mb/s
Width : 1 920 pixels
Height : 1 080 pixels
Display aspect ratio : 16:9
Frame rate mode : Constant
Frame rate : 23.976 (24000/1001) FPS
Color space : YUV
Chroma subsampling : 4:2:0
Bit depth : 8 bits
Scan type : Progressive
Bits/(Pixel*Frame) : 0.501
Stream size : 21.7 GiB (91%)
Language : English
Default : No
Forced : No

Audio #1
ID : 2
Format : AC-3
Format/Info : Audio Coding 3
Commercial name : Dolby Digital
Codec ID : A_AC3
Duration : 2 h 4 min
Bit rate mode : Constant
Bit rate : 384 kb/s
Channel(s) : 6 channels
Channel layout : L R C LFE Ls Rs
Sampling rate : 48.0 kHz
Frame rate : 31.250 FPS (1536 SPF)
Compression mode : Lossy
Stream size : 342 MiB (1%)
Title : MVO [Jaskier]
Language : Russian
Service kind : Complete Main
Default : Yes
Forced : Yes

Audio #2
ID : 3
Format : DTS XLL
Format/Info : Digital Theater Systems
Commercial name : DTS-HD Master Audio
Codec ID : A_DTS
Duration : 2 h 4 min
Bit rate mode : Variable
Bit rate : 2 140 kb/s
Channel(s) : 6 channels
Channel layout : C L R Ls Rs LFE
Sampling rate : 48.0 kHz
Frame rate : 93.750 FPS (512 SPF)
Bit depth : 16 bits
Compression mode : Lossless
Stream size : 1.86 GiB (8%)
Title : Original
Language : English
Default : No
Forced : No

Text
ID : 4
Format : UTF-8
Codec ID : S_TEXT/UTF8
Codec ID/Info : UTF-8 Plain Text
Duration : 2 h 0 min
Bit rate : 60 b/s
Count of elements : 1556
Stream size : 53.6 KiB (0%)
Title : Full
Language : English
Default : No
Forced : No

Menu
00:00:00.000 : Chapter 01
00:09:14.637 : Chapter 02
00:17:31.676 : Chapter 03
00:20:25.558 : Chapter 04
00:26:13.030 : Chapter 05
00:34:10.840 : Chapter 06
00:49:55.492 : Chapter 07
01:01:30.812 : Chapter 08
01:06:45.752 : Chapter 09
01:11:32.246 : Chapter 10
01:15:28.649 : Chapter 11
01:19:47.950 : Chapter 12
01:24:26.436 : Chapter 13
01:31:17.263 : Chapter 14
01:39:43.019 : Chapter 15
01:50:27.871 : Chapter 16

Другие фильмы
У данной публикации пока нет комментариев.
Будь первым, оставь своё мнение в комментариях!
Информация
Посетители, находящиеся в группе Гости, не могут оставлять комментарии к данной публикации.
Самый популярный релиз недели
2.5 Gb ...

Кино копилка
...
Какую тему вы используете?

Реклама
Последние комментарии
...

bolonka123

Вчера, 18:48

...

Desol

Вчера, 17:34

...

bolonka123

Вчера, 14:50

...

Hargs

4 октября 2022 21:24

...

Robot

4 октября 2022 11:12