+3

Мания / The Novice (2021) UHD WEB-DL-HEVC 2160p от селезень | 4K | SDR | D

Информация о фильме
Название: Мания
Оригинальное название: The Novice
Год выхода: 2021
Жанр: спорт, драма
Режиссер: Лорен Хэдэуэй
В ролях: Изабель Фурман, Эми Форсайт, Дилон, Джонатан Черри, Кейт Драммонд, Шарлотта Уббен, Сэйдж Ирвин, Чантелл Бишоп, Дженни Росс, Никки Дювал

О фильме: Первокурсница Алекс одержима желанием стать лучшей во всём. Для получения полной стипендии она записывается в университетскую команду по гребле. Вскоре ей предстоит проверить пределы собственных физических и психологических возможностей и обойти остальных, чего бы ей это не стоило.

Страна: США
Студия: Exit Strategy Productions, H2L Media Group, Picture Movers Anonymous
Продолжительность: 01:36:58
Перевод: Дублированный | Мосфильм-Мастер

Качество: WEB-DL 2160p
Видео: 3832x1602 at 23.976 fps, MPEG-H HEVC SDR, ~ 12000 kbps avg
Аудио #01: 48 kHz, AC3, 5.1, 448 Kbps | Дублированный | Мосфильм-Мастер | RUS |Мания / The Novice (2021) UHD WEB-DL-HEVC 2160p от селезень | 4K | SDR | D
Аудио #02: 48 kHz, E-AC3, 5.1, 448 Kbps | Дублированный | Мосфильм-Мастер | RUS |
Аудио #03: 48 kHz, E-AC3, 5.1, 640 Kbps | Оригинал | ENG |
Субтитры: Английские

***Данный релиз был приобретен в рамках "Сбор средств на приобретение релизов с онлайн площадок."

Мания / The Novice (2021) UHD WEB-DL-HEVC 2160p от селезень | 4K | SDR | D

Авторизуйтесь для получения доступа к скачиванию

Нет аккаунта? Регистрация открыта и займёт меньше минуты

Вход Регистрация

General
Unique ID : 259248849007780016762161454151731595860 (0xC309831B4AE2DAEED11F533F5F214A54)
Complete name : D:\Video1\The.Novice.2021.WEB-DL.2160.SDR.seleZen.mkv
Format : Matroska
Format version : Version 4
File size : 9.18 GiB
Duration : 1 h 36 min
Overall bit rate : 13.6 Mb/s
Movie name : The Novice 2021 from seleZen
Encoded date : UTC 2022-05-07 09:02:01
Writing application : mkvmerge v59.0.0 ('Shining Star') 64-bit
Writing library : libebml v1.4.2 + libmatroska v1.6.4

Video
ID : 1
Format : HEVC
Format/Info : High Efficiency Video Coding
Format profile : Main [email protected]@High
Codec ID : V_MPEGH/ISO/HEVC
Duration : 1 h 36 min
Bit rate : 12.0 Mb/s
Width : 3 832 pixels
Height : 1 602 pixels
Display aspect ratio : 2.40:1
Frame rate mode : Constant
Frame rate : 23.976 FPS
Color space : YUV
Chroma subsampling : 4:2:0
Bit depth : 10 bits
Bits/(Pixel*Frame) : 0.082
Stream size : 8.14 GiB (89%)
Default : Yes
Forced : No
Color range : Limited
Color primaries : BT.709
Transfer characteristics : BT.709
Matrix coefficients : BT.709

Audio #1
ID : 2
Format : AC-3
Format/Info : Audio Coding 3
Commercial name : Dolby Digital
Codec ID : A_AC3
Duration : 1 h 36 min
Bit rate mode : Constant
Bit rate : 448 kb/s
Channel(s) : 6 channels
Channel layout : L R C LFE Ls Rs
Sampling rate : 48.0 kHz
Frame rate : 31.250 FPS (1536 SPF)
Compression mode : Lossy
Stream size : 311 MiB (3%)
Title : Dub
Language : Russian
Service kind : Complete Main
Default : Yes
Forced : Yes

Audio #2
ID : 3
Format : E-AC-3
Format/Info : Enhanced AC-3
Commercial name : Dolby Digital Plus
Codec ID : A_EAC3
Duration : 1 h 36 min
Bit rate mode : Constant
Bit rate : 448 kb/s
Channel(s) : 6 channels
Channel layout : L R C LFE Ls Rs
Sampling rate : 48.0 kHz
Frame rate : 31.250 FPS (1536 SPF)
Compression mode : Lossy
Stream size : 311 MiB (3%)
Title : Dub
Language : Russian
Service kind : Complete Main
Default : No
Forced : No

Audio #3
ID : 4
Format : E-AC-3
Format/Info : Enhanced AC-3
Commercial name : Dolby Digital Plus
Codec ID : A_EAC3
Duration : 1 h 36 min
Bit rate mode : Constant
Bit rate : 640 kb/s
Channel(s) : 6 channels
Channel layout : L R C LFE Ls Rs
Sampling rate : 48.0 kHz
Frame rate : 31.250 FPS (1536 SPF)
Compression mode : Lossy
Stream size : 444 MiB (5%)
Title : Original
Language : English
Service kind : Complete Main
Default : No
Forced : No

Text #1
ID : 5
Format : UTF-8
Codec ID : S_TEXT/UTF8
Codec ID/Info : UTF-8 Plain Text
Duration : 1 h 31 min
Bit rate : 54 b/s
Count of elements : 1300
Stream size : 36.8 KiB (0%)
Title : Full
Language : English
Default : No
Forced : No

Text #2
ID : 6
Format : UTF-8
Codec ID : S_TEXT/UTF8
Codec ID/Info : UTF-8 Plain Text
Duration : 1 h 34 min
Bit rate : 63 b/s
Count of elements : 1618
Stream size : 43.7 KiB (0%)
Title : SDH
Language : English
Default : No
Forced : No

Другие фильмы
Комментарии:

...
Laska020489 9 мая 2022 02:41
0

тупо за рип лайк

Информация
Посетители, находящиеся в группе Гости, не могут оставлять комментарии к данной публикации.
Самый популярный релиз недели
BDRip 1080p 9.87 Gb ...

Кино копилка
...
Какую тему вы используете?

Реклама
Последние комментарии
...

bere

Сегодня, 12:40

...

Chilly

Сегодня, 12:17

...

Desol

Вчера, 15:18

...

ArchieBlake

Вчера, 07:46

...

павел

Вчера, 05:13

Реклама