+3

Нью-Йоркский потрошитель / Lo squartatore di New York / The New York Ripper (1982) UHD BDRemux 2160p от селезень | 4K | HDR | A, L1

Информация о фильме
Название: Нью-Йоркский потрошитель
Оригинальное название: Lo squartatore di New York / The New York Ripper
Год выхода: 1982
Жанр: Ужасы, триллер, детектив
Режиссер: Лучио Фульчи
В ролях: Джек Хедли, Антонелла Интерленги, Ховард Росс, Андреа Оккипинти, Александра Делли Колли, Паоло Малко, Чинция Де Понти, Косимо Чиньери, Даниела Дория, Бабетт Нью


О фильме: Как только не называют Нью-Йорк — и городом контрастов, и городом желтого дьявола. Чего чего, а дьявольщины здесь хватает. Особенно об этом осведомлён уже немолодой полицейский детектив, которому приходится расследовать серию убийств молодых женщин. Понимая, что упускает что-то важное, он обращается за помощью к молодому доктору психологии.

Страна: Италия
Студия: Fulvia Film, Silent Warrior Productions
Продолжительность: 01:33:07
Перевод(ы):
#1: Авторский одноголосый (Сергей Визгунов)
#2: Авторский одноголосый (Сергей Кузнецов)
#3: Авторский одноголосый (Алексей Тимофеев)

[b]Качество:
BDRemux 2160p
Видео: 3840x2160 at 23.976 fps, MPEG-H HEVC HDR Video, 63000 kbps avg
Аудио #01: 48 kHz, AC3, 2.0, 192 Kbps | Сергей Визгунов | RUS |Нью-Йоркский потрошитель / Lo squartatore di New York / The New York Ripper (1982) UHD BDRemux 2160p от селезень | 4K | HDR | A, L1
Аудио #02: 48 kHz, AC3, 2.0, 192 Kbps | Сергей Кузнецов | RUS |
Аудио #03: 48 kHz, AC3, 2.0, 192 Kbps | Алексей Тимофеев | RUS |
Аудио #04: 48 kHz, TrueHD, 7.1, 3570 Kbps | Оригинал | ENG |
Аудио #05: 48 kHz, AC3, 7.1, 640 Kbps | Оригинал | ENG |
Субтитры: Английские

Нью-Йоркский потрошитель / Lo squartatore di New York / The New York Ripper (1982) UHD BDRemux 2160p от селезень | 4K | HDR | A, L1

Авторизуйтесь для получения доступа к скачиванию

Нет аккаунта? Регистрация открыта и займёт меньше минуты

Вход Регистрация

General
Unique ID : 142059978176183975735984458609076811905 (0x6ADFC1AFAD059AB33456A9202C953881)
Complete name : \\192.168.1.136\Download\The.New.York.Ripper.1982.BDREMUX.2160p.HDR.seleZen.mkv
Format : Matroska
Format version : Version 4
File size : 44.1 GiB
Duration : 1 h 33 min
Overall bit rate mode : Variable
Overall bit rate : 67.8 Mb/s
Movie name : The New York Ripper 1982 from seleZen
Encoded date : UTC 2022-12-31 02:06:04
Writing application : mkvmerge v59.0.0 ('Shining Star') 64-bit
Writing library : libebml v1.4.2 + libmatroska v1.6.4

Video
ID : 1
Format : HEVC
Format/Info : High Efficiency Video Coding
Format profile : Main [email protected]@High
HDR format : SMPTE ST 2086, HDR10 compatible
Codec ID : V_MPEGH/ISO/HEVC
Duration : 1 h 33 min
Bit rate : 63.0 Mb/s
Width : 3 840 pixels
Height : 2 160 pixels
Display aspect ratio : 16:9
Frame rate mode : Constant
Frame rate : 23.976 (24000/1001) FPS
Color space : YUV
Chroma subsampling : 4:2:0 (Type 2)
Bit depth : 10 bits
Bits/(Pixel*Frame) : 0.317
Stream size : 41.0 GiB (93%)
Language : English
Default : Yes
Forced : No
Color range : Limited
Color primaries : BT.2020
Transfer characteristics : PQ
Matrix coefficients : BT.2020 non-constant
Mastering display color pri : BT.2020
Mastering display luminance : min: 0.0001 cd/m2, max: 1000 cd/m2

Audio #1
ID : 2
Format : AC-3
Format/Info : Audio Coding 3
Commercial name : Dolby Digital
Codec ID : A_AC3
Duration : 1 h 33 min
Bit rate mode : Constant
Bit rate : 192 kb/s
Channel(s) : 2 channels
Channel layout : L R
Sampling rate : 48.0 kHz
Frame rate : 31.250 FPS (1536 SPF)
Compression mode : Lossy
Stream size : 128 MiB (0%)
Title : AVO [Сергей Визгунов]
Language : Russian
Service kind : Complete Main
Default : Yes
Forced : Yes

Audio #2
ID : 3
Format : AC-3
Format/Info : Audio Coding 3
Commercial name : Dolby Digital
Codec ID : A_AC3
Duration : 1 h 33 min
Bit rate mode : Constant
Bit rate : 192 kb/s
Channel(s) : 2 channels
Channel layout : L R
Sampling rate : 48.0 kHz
Frame rate : 31.250 FPS (1536 SPF)
Compression mode : Lossy
Stream size : 128 MiB (0%)
Title : AVO [Сергей Кузнецов]
Language : Russian
Service kind : Complete Main
Default : No
Forced : No

Audio #3
ID : 4
Format : AC-3
Format/Info : Audio Coding 3
Commercial name : Dolby Digital
Codec ID : A_AC3
Duration : 1 h 33 min
Bit rate mode : Constant
Bit rate : 192 kb/s
Channel(s) : 2 channels
Channel layout : L R
Sampling rate : 48.0 kHz
Frame rate : 31.250 FPS (1536 SPF)
Compression mode : Lossy
Stream size : 128 MiB (0%)
Title : AVO [Алексей Тимофеев]
Language : Russian
Service kind : Complete Main
Default : No
Forced : No

Audio #4
ID : 5
Format : MLP FBA 16-ch
Format/Info : Meridian Lossless Packing FBA with 16-channel presentation
Commercial name : Dolby TrueHD with Dolby Atmos
Codec ID : A_TRUEHD
Duration : 1 h 33 min
Bit rate mode : Variable
Bit rate : 3 570 kb/s
Maximum bit rate : 6 348 kb/s
Channel(s) : 8 channels
Channel layout : L R C LFE Ls Rs Lb Rb
Sampling rate : 48.0 kHz
Frame rate : 1 200.000 FPS (40 SPF)
Compression mode : Lossless
Stream size : 2.32 GiB (5%)
Title : Original
Language : English
Default : No
Forced : No
Number of dynamic objects : 11
Bed channel count : 1 channel
Bed channel configuration : LFE

Audio #5
ID : 6
Format : AC-3
Format/Info : Audio Coding 3
Commercial name : Dolby Digital
Format settings : Dolby Surround EX
Codec ID : A_AC3
Duration : 1 h 33 min
Bit rate mode : Constant
Bit rate : 640 kb/s
Channel(s) : 6 channels
Channel layout : L R C LFE Ls Rs
Sampling rate : 48.0 kHz
Frame rate : 31.250 FPS (1536 SPF)
Compression mode : Lossy
Stream size : 426 MiB (1%)
Language : English
Service kind : Complete Main
Default : No
Forced : No

Text #1
ID : 7
Format : UTF-8
Codec ID : S_TEXT/UTF8
Codec ID/Info : UTF-8 Plain Text
Duration : 1 h 30 min
Bit rate : 30 b/s
Frame rate : 0.115 FPS
Count of elements : 621
Stream size : 20.1 KiB (0%)
Title : Full
Language : English
Default : No
Forced : No

Text #2
ID : 8
Format : UTF-8
Codec ID : S_TEXT/UTF8
Codec ID/Info : UTF-8 Plain Text
Duration : 1 h 31 min
Bit rate : 56 b/s
Frame rate : 0.195 FPS
Count of elements : 1069
Stream size : 37.8 KiB (0%)
Title : SDH
Language : English
Default : No
Forced : No

Menu
00:00:00.000 : 1. Main Titles / Brooklyn Bridge Girl
00:05:30.872 : 2. Staten Ferry Island
00:11:43.161 : 3. Coroner's Report
00:18:20.016 : 4. Live Sex Show Death
00:25:16.598 : 5. Call From A Killer
00:30:58.190 : 6. Under The Table
00:35:22.037 : 7. Subway Scare
00:40:38.353 : 8. Hospital Nightmare
00:44:51.314 : 9. Man Missing Two Fingers
00:49:22.543 : 10. Sleeping With The Enemy
00:54:02.698 : 11. Caught On Tape
01:02:29.537 : 12. Left Alone
01:10:16.796 : 13. A Special Offering
01:19:47.866 : 14. The Motive
01:26:09.539 : 15. Kill Or Be Killed
01:31:40.912 : 16. End Credits

Другие фильмы
У данной публикации пока нет комментариев.
Будь первым, оставь своё мнение в комментариях!
Информация
Посетители, находящиеся в группе Гости, не могут оставлять комментарии к данной публикации.
Самый популярный релиз недели

Кино копилка
...
Какую тему вы используете?

Реклама
Последние комментарии
...

ivanfan1337

Вчера, 12:49

...

Bhaar

30 января 2023 22:55

...

dembell56

29 января 2023 11:37

...

rmzshka

27 января 2023 14:23

...

Rograr

25 января 2023 21:12

Реклама